Comedy

Out Of Sight [1998]DVDRip[eng]

  • Download 5x Faster
  • Download torrent
  • Direct Download
  • Rate this torrent +  |  -
Out Of Sight [1998]DVDRip[eng]

Anonymous and Free Direct Download


Torrent info

Name:Out Of Sight [1998]DVDRip[eng]

Total Size: 699.68 MB

Magnet: Magnet Link

Seeds: 0

Leechers: 0

Stream: Watch Online @ Movie4u

Last Updated: 2015-11-23 10:05:56 (Update Now)

Torrent added: 2009-08-31 15:35:07



VPN For Torrents

Torrent Files List


Out Of Sight (1998).avi (Size: 699.68 MB) (Files: 4)

 Out Of Sight (1998).avi

699.56 MB

 Out Of Sight (1998).jpg

47.15 KB

 Out Of Sight.jpg

81.76 KB

 Torrent_downloaded_from_Demonoid.com.txt

0.05 KB
 

tracker

leech seeds
 

Torrent description

A career bank robber busts out of jail (Clooney) with the help of his buddy (Rhames) and kidnaps a US Marshal (Lopez) in the process. When the two cons head for Detroit to pull off their final big scam, the Marshal is put on their case but she finds she is attracted to one of them and has second thoughts about bringing them in.
Duration: 01:56:49.7, start: 0.000000, bitrate: 837 kb/s
Stream #0.0: Video: msmpeg4, yuv420p, 512x288 [PAR 0:1 DAR 0:1], 29.97 tb(r)
Stream #0.1: Audio: mp3, 48000 Hz, stereo, 96 kb/s

****not ripped by me****
****credits to the original uploader****

Please comment on the quality.

related torrents

Torrent name

health leech seeds Size
 


comments (0)

Main Menu