Family

JIM HENSONS BUDDY IN H 264 BY KIDZCORNER

  • Download 5x Faster
  • Download torrent
  • Direct Download
  • Rate this torrent +  |  -
JIM HENSONS BUDDY IN H 264 BY KIDZCORNER

Free and Direct Download with Usenet.nl 300GB+ free


Torrent info

Name:JIM HENSONS BUDDY IN H 264 BY KIDZCORNER

Total Size: 799.41 MB

Magnet: Magnet Link

Seeds: 0

Leechers: 1

Stream: Watch Online @ Movie4u

Last Updated: 2016-04-20 07:17:26 (Update Now)

Torrent added: 2009-08-31 15:34:32





Torrent Files List


jim hensons buddy.mp4 (Size: 799.41 MB) (Files: 4)

 jim hensons buddy.mp4

799.18 MB

 Buddy-[cdcovers_cc]-front.jpg

232.97 KB

 kidzcorner info.txt

0.30 KB

 Torrent downloaded from Demonoid.com.txt

0.05 KB
 

tracker

leech seeds
 

Torrent description

A delightful family adventure based on a remarkable true story featuring amazing effects courtesy of Jim Henson's Creature Shop.

Rene Russo stars as eccentric socialite Gertrude "Trudy" Lintz, who adopts a baby gorilla into her already-bustling animal menagerie. Along with chimpanzees Maggie and Joe, Buddy gets into all kinds of hilarious monkey business
and proceeds to drive everyone bananas. .

Format : MPEG-4
Format profile : Base Media / Version 2
Codec ID : mp42
File size : 799 MiB
Duration : 1h 20mn
Overall bit rate : 1 392 Kbps
Encoded date : UTC 2009-08-31 16:58:27
Tagged date : UTC 2009-08-31 19:02:54
Writing application : HandBrake 0.9.3 2008112300

Video
ID : 1
Format : AVC
Format/Info : Advanced Video Codec
Format profile : [email protected]
Format settings, CABAC : Yes
Format settings, ReFrames : 3 frames
Codec ID : avc1
Codec ID/Info : Advanced Video Coding
Duration : 1h 20mn
Bit rate mode : Variable
Bit rate : 1 229 Kbps
Width : 626 pixels
Height : 268 pixels
Display aspect ratio : 2.35:1
Frame rate mode : Variable
Frame rate : 25.000 fps
Minimum frame rate : 12.928 fps
Maximum frame rate : 25.000 fps
Resolution : 24 bits
Colorimetry : 4:2:0
Scan type : Progressive
Bits/(Pixel*Frame) : 0.293
Stream size : 705 MiB (88%)
Writing library : x264 core 65


Audio
ID : 2
Format : AAC
Format/Info : Advanced Audio Codec
Format version : Version 4
Format profile : LC
Format settings, SBR : No
Codec ID : 40
Duration : 1h 20mn
Bit rate mode : Variable
Bit rate : 160 Kbps
Maximum bit rate : 257 Kbps
Channel(s) : 2 channels
Channel positions : L R
Sampling rate : 48.0 KHz
Resolution : 16 bits
Stream size : 91.9 MiB (11%)
Encoded date : UTC 2009-08-31 16:58:27
Tagged date : UTC 2009-08-31 19:02:50

related torrents

Torrent name

health leech seeds Size
 

comments (0)

Main Menu