Comedy

Nobel Son 2007 DVDRIP XviD ZEKTORM

  • Download 5x Faster
  • Download torrent
  • Direct Download
  • Rate this torrent +  |  -
Nobel Son 2007 DVDRIP XviD ZEKTORM

Download FREE And Anonymously


Torrent info

Name:Nobel Son 2007 DVDRIP XviD ZEKTORM

Total Size: 708.32 MB

Magnet: Magnet Link

Seeds: 0

Leechers: 0

Stream: Watch Full Movie @ Movie4u

Last Updated: 2010-09-22 10:49:32 (Update Now)

Torrent added: 2009-08-31 14:56:19



VPN For Torrents

Torrent Files List


Nobel.Son.2007.DVDRIP.XviD-ZEKTORM.avi (Size: 708.32 MB) (Files: 4)

 Nobel.Son.2007.DVDRIP.XviD-ZEKTORM.avi

700.85 MB

 READ.hlp

11.27 KB

 Subs

  Nobel.Son.2007.DVDRIP.XviD-ZEKTORM.idx

123.67 KB

  Nobel.Son.2007.DVDRIP.XviD-ZEKTORM.sub

7.34 MB
 

Announce URL: http://tv.tracker.prq.to/announce

Torrent description

Title : Nobel Son
Year : 2007
Genre : Comedy | Crime | Drama | Thriller
iMDB Rate : User Rating: 7.8/10 629 votes
iMDB URL : http://www.imdb.com/title/tt0483756/

Complete name : Nobel.Son.2007.DVDRIP.XviD-ZEKTORM.avi
Format : AVI
File size : 701 MiB
Duration : 1h 50mn
Overall bit rate : 888 Kbps
Subtitles : English, Spanish (Format: VobSub)
Source : DVD NTSC

Video
Format : MPEG-4 Visual
Format profile : Streaming [email protected]
Codec ID : DX50
Codec ID/Hint : DivX 5
Duration : 1h 50mn
Bit rate : 753 Kbps
Width : 720 pixels
Height : 304 pixels
Display aspect ratio : 2.35
Frame rate : 23.976 fps
Resolution : 24 bits
Colorimetry : 4:2:0
Scan type : Progressive
Bits/(Pixel*Frame) : 0.144
Stream size : 594 MiB (85%)
Writing library : XviD

Audio
Format : MPEG Audio
Format version : Version 1
Format profile : Layer 3
Codec ID : 55
Codec ID/Hint : MP3
Duration : 1h 50mn
Bit rate mode : Constant
Bit rate : 128 Kbps
Minimum bit rate : 128 Kbps
Channel(s) : 2 channels
Sampling rate : 48.0 KHz
Resolution : 16 bits
Stream size : 101 MiB (14%)
Writing library : LAME3.98r
Encoding settings : CBR

related torrents

Torrent name

health leech seeds Size
 


comments (0)

Main Menu

 

script data-cfasync="false" src="//d2ghscazvn398x.cloudfront.net/?cshgd=690275">