Comedy

New York New York(1977){H264}[Naughty Knights][H33T]Minnelli DeNiro

  • Download 5x Faster
  • Download torrent
  • Direct Download
  • Rate this torrent +  |  -

Torrent info

Name:New York New York(1977){H264}[Naughty Knights][H33T]Minnelli DeNiro

Total Size: 0.98 GB

Magnet: Magnet Link

Seeds: 18

Leechers: 6

Stream: Watch Online @ Movie4u

Last Updated: 2012-05-04 22:45:57 (Update Now)

Torrent added: 2009-08-31 14:41:41



VPN For Torrents

Torrent Files List


ny.avi (Size: 0.98 GB) (Files: 9)

 ny.avi

0.98 GB

 NY1.jpg

20.25 KB

 NY2.jpg

15.26 KB

 NY3.jpg

22.16 KB

 NY4.jpg

15.72 KB

 NY5.jpg

21.14 KB

 NYNY desc.txt

4.29 KB

 Torrent_downloaded_from_Demonoid.com.txt

0.05 KB

 tracked_by_h33t_com.txt

0.02 KB
 

Announce URL: http://www.h33t.com:3310/announce

Torrent description

*************************************
* IF.YOU.ENJOYED.THANK.ME.BY.SEEDING

* I.DO.NOT.ALWAYS.READ.COMMENTS

* REQUEST RESEED AT:

* www.h33tfr33sp33k.h33t.com/

*************************************
* New York New York (1977)[Naughty Knights]

* Genre..........: Drama Musical

* Source ........: DVDrip

* Language ......: English

* Quality........: Good

* Hash ..........: B010DA49D01AF185AE021293D9E20831035B5970

* Tracker 1......: http://www.h33t.com:3310/announce

* Tracker 2 .....: http://inferno.demonoid.com:3410/announce

* For file details see below:
-----------------
IMDB: http://www.imdb.com/title/tt0076451/
----------------
Description:
What is fantastic and wonderful about this film is the music, the sets and when Liza Minnelli sings. Liza is superb in her performance and Robert DeNiro plays a character that is arrogant, brutal and slightly erratic in a way that only DeNiro can perform. His character is quite disturbing to watch as the film takes a serious turn. There are several twists and turns in this film. Try to see the 2 hours + 44 min. version that includes more of the "Happy Ending" musical number that features Larry Kent. Beware of prints that have been cut down to 153 min. and 137 min. This film is at its best in the 164 min. form. I enjoy the performance of the woman who sings "Honeysuckle Rose". Whether this movie has a happy ending is something to behold. It can be best interpreted by the viewer. Some woman (and men) may say "hurray" for Liza while Alpha-males may be on the DeNiro's character's side. Watch Liza for her excellent, dramatic performance.
--------------------------------------
Details: Mediainfo log:

General
Complete name : C:\Users\nyny.avi
Format : AVI
Format/Info : Audio Video Interleave
File size : 1 001 MiB
Duration : 2h 33mn
Overall bit rate : 911 Kbps
Writing application : FairUse Wizard - http://fairusewizard.com
Writing library : The best and REALLY easy backup tool

Video
Format : AVC
Format/Info : Advanced Video Codec
Format profile : [email protected]
Format settings, CABAC : Yes
Format settings, ReFrames : 2 frames
Codec ID : H264
Duration : 2h 33mn
Bit rate : 773 Kbps
Width : 512 pixels
Height : 368 pixels
Display aspect ratio : 1.391
Frame rate : 25.000 fps
Resolution : 24 bits
Colorimetry : 4:2:0
Scan type : Progressive
Bits/(Pixel*Frame) : 0.164
Stream size : 849 MiB (85%)
Writing library : x264 core 58 svn-736bm
Encoding settings : cabac=1 / ref=1 / deblock=1:0:0 / analyse=0x1:0x131 / me=hex / subme=5 / brdo=0 / mixed_ref=0 / me_range=16 / chroma_me=1 / trellis=1 / 8x8dct=0 / cqm=0 / deadzone=21,11 / chroma_qp_offset=0 / threads=2 / nr=0 / decimate=1 / mbaff=0 / bframes=2 / b_pyramid=0 / b_adapt=1 / b_bias=0 / direct=1 / wpredb=1 / bime=0 / keyint=250 / keyint_min=25 / scenecut=40(pre) / rc=2pass / bitrate=773 / ratetol=1.0 / rceq='blurCplx^(1-qComp)' / qcomp=0.60 / qpmin=10 / qpmax=51 / qpstep=4 / cplxblur=20.0 / qblur=0.5 / ip_ratio=1.40 / pb_ratio=1.30

Audio
Format : MPEG Audio
Format version : Version 1
Format profile : Layer 3
Codec ID : 55
Codec ID/Hint : MP3
Duration : 2h 33mn
Bit rate mode : Constant
Bit rate : 128 Kbps
Minimum bit rate : 128 Kbps
Channel(s) : 2 channels
Sampling rate : 48.0 KHz
Resolution : 16 bits
Stream size : 141 MiB (14%)
Alignment : Aligned on interleaves
Interleave, duration : 40 ms (1.00 video frame)
Interleave, preload duration : 504 ms
Writing library : LAME3.97
Encoding settings : CBR











related torrents

Torrent name

health leech seeds Size
 


comments (0)

Main Menu