Comedy

National Security[2003]DVDrip[Eng]AC3[5 1] Atlas47

  • Download 5x Faster
  • Download torrent
  • Direct Download
  • Rate this torrent +  |  -
National Security[2003]DVDrip[Eng]AC3[5 1] Atlas47

Free and Direct Download with Usenet.nl 300GB+ free


Torrent info

Name:National Security[2003]DVDrip[Eng]AC3[5 1] Atlas47

Total Size: 1.37 GB

Magnet: Magnet Link

Seeds: 3

Leechers: 1

Stream: Watch Online @ Movie4u

Last Updated: 2011-10-20 22:35:21 (Update Now)

Torrent added: 2009-08-31 14:34:30





Torrent Files List


Cover (Size: 1.37 GB) (Files: 7)

 Cover

  National Security.jpg

495.74 KB

 National Security.avi

1.37 GB

 National Security.idx

50.25 KB

 National Security.nfo

10.30 KB

 National Security.sub

4.08 MB

 ResourceRG_NFO_please_read.txt

20.91 KB

 Torrent_downloaded_from_Demonoid.com.txt

0.05 KB
 

Announce URL: http://tracker.torrentbox.com:2710/announce

Torrent description


±±±±±±±±±±±±±±±±±±±±±±±±±±±±±±±±±±±±±±±±±±±±±±±±±±±±±±±±±±±±±±±±±±±±±±±±±±±±±±±±
± ±
± INFO: ±
± ±
± General ±
± Complete name : National Security ±
± Genre : Action / Comedy / Crime / Thriller ±
± Format : AVI ±
± Format/Info : Audio Video Interleave ±
± File size : 1.37 GiB ±
± Duration : 1h 24mn ±
± Overall bit rate : 2 310 Kbps ±
± Writing application : VirtualDubMod 1.5.4.1 (build 2178/release)±
± Writing library : VirtualDubMod build 2178/release ±
± ±
± Video ±
± Format : MPEG-4 Visual ±
± Format settings, BVOP : Yes ±
± Format settings, QPel : No ±
± Format settings, GMC : No warppoints ±
± Format settings, Matrix : Default ±
± Codec ID : DX50 ±
± Codec ID/Hint : DivX 5 ±
± Duration : 1h 24mn ±
± Bit rate : 1 854 Kbps ±
± Width : 640 pixels ±
± Height : 352 pixels ±
± Display aspect ratio : 16/9 ±
± Frame rate : 25.000 fps ±
± Resolution : 24 bits ±
± Colorimetry : 4:2:0 ±
± Scan type : Progressive ±
± Bits/(Pixel*Frame) : 0.329 ±
± Stream size : 1.10 GiB (80%) ±
± Writing library : DivX 2816 ±
± ±
± Audio ±
± Format : AC-3 ±
± Format/Info : Audio Coding 3 ±
± Codec ID : 2000 ±
± Duration : 1h 24mn ±
± Bit rate mode : Constant ±
± Bit rate : 448 Kbps ±
± Channel(s) : 6 channels ±
± Channel positions : Front: L C R, Surround: L R, LFE ±
± Sampling rate : 48.0 KHz ±
± Stream size : 272 MiB (19%) ±
± Alignment : Split accross interleaves ±
± Interleave, duration : 80 ms (2.00 video frames) ±
± Interleave, preload duration : 500 ms ±
± Language : English ±
± Subtitles : English ±
± ±
± IMDb Rating : 4.9/10 ±
± IMDb URL : http://www.imdb.com/title/tt0271668/ ±
± ±
±°°°°°°°°°°°°°°°°°°°°°°°°°°°°°°°°°°°°°°°°°°°°°°°°°°°°°°°°°°°°°°°°°°°°°°°°°°°°°°±
± ±
± When Martin Lawrence and Steve Zahn team up as security guards, no one's ±
± safe! ±
± LAPD reject and major troublemaker Earl got L.A. cop Hank kicked off the ±
± force for brutality. Now, these two guys who can't stand each other, are ±
± stuck working togeter as lowly security guards. And they're playing cops to ±
± bring down a smuggling ring-if they can stay one step ahead of the real ±
± cops. ±
± NATIONAL SECURITY will take you on a wild ride with the most unlikely heroes ±
± ever to wear a badge! ±
± ±
± ±
±°°°°°°°°°°°°°°°°°°°°°°°°°°°°°°°°°°°°°°°°°°°°°°°°°°°°°°°°°°°°°°°°°°°°°°°°°°°°°°±
± ±
± CAST: ±
± ±
± Martin Lawrence............Earl Montgomery ±
± Steve Zahn.................Hank Rafferty ±
± Colm Feore.................Detective Frank McDuff ±
± Bill Duke..................Lieutenant Washington ±
± Eric Roberts...............Nash ±
± Timothy Busfield...........Charlie Reed ±
± Robinne Lee................Denise ±
± ±
±°°°°°°°°°°°°°°°°°°°°°°°°°°°°°°°°°°°°°°°°°°°°°°°°°°°°°°°°°°°°°°°°°°°°°°°°°°°°°°±
± ±
± Please remember to seed ±
± ±
± Seeding is good for the soul ±
± ±
± www.tornster.com ±
± ±
±±±±±±±±±±±±±±±±±±±±±±±±±±±±±±±±±±±±±±±±±±±±±±±±±±±±±±±±±±±±±±±±±±±±±±±±±±±±±±±±

related torrents

Torrent name

health leech seeds Size
 

comments (0)

Main Menu