Comedy

Mrs Winterbourne (1996)

  • Download 5x Faster
  • Download torrent
  • Direct Download
  • Rate this torrent +  |  -
Mrs Winterbourne (1996)

Anonymous and Free Direct Download


Torrent info

Name:Mrs Winterbourne (1996)

Total Size: 695.60 MB

Magnet: Magnet Link

Seeds: 0

Leechers: 0

Stream: Watch Online @ Movie4u

Last Updated: 0000-00-00 00:00:00 (Update Now)

Torrent added: 2009-08-31 14:02:16



VPN For Torrents

Torrent Files List


Info about this release.txt (Size: 695.60 MB) (Files: 4)

 Info about this release.txt

4.80 KB

 Mrs Winterbourne (1996) Shirley MacLaine + Brendan Fraser_Kuth.avi

694.78 MB

 Notes on subtitle files.txt

1.68 KB

 Optional English subtitles.rar

830.73 KB
 

Announce URL:

Torrent description

Mrs. Winterbourne (1996)
DVDrip English, English subtitles in separate idx/sub files.

With Ricky Lake, Miguel Sandoval and Loren Dean

Feel-good film where a poor and pregnant Ricky Lake survives a train crash and wakes up with a filthy rich Shirley MacLaine as her mother-in-law, and Brendan Fraser's twin as her husband.
Some of the comment writers on imdb are disappointed with Ricky Lake's performance as an actor, but Shirley has a field day, and Brendan Fraser is never dull.

I don't understand why there is no torrent for this movie, and apologize on behalf of the American DVD producers with the irritating habit of cutting the widescreen. (Called 'Re-formatted to fit your TV' - most TVs now are WIDESCREEN!!!)

DVDrip, 2-pass XviD fullscreen 624x464, great stereo AC3
Burn tested, runs well in both my standalone DivX players.


Format/Info : Audio Video Interleave
File size : 695 MiB
Duration : 1h 46mn
Overal bit rate : 916 Kbps

Video
Format : MPEG-4 Visual
Format profile : Streaming [email protected]
Format settings, BVOP : Yes
Format settings, QPel : No
Format settings, GMC : No warppoints
Format settings, Matrix : Default
Muxing mode : Packet Bitstream
Codec ID : XVID
Codec ID/Hint : XviD
Duration : 1h 46mn
Bit rate : 779 Kbps
Width : 624 pixels
Height : 464 pixels
Display aspect ratio : 4/3
Frame rate : 23.976 fps
Resolution : 8 bits
Colorimetry : 4:2:0
Scan type : Progressive
Bits/(Pixel*Frame) : 0.112
Stream size : 591 MiB
Writing library : XviD 1.2.0.dev47 (UTC 2006-11-01)

Audio
Format : MPEG Audio
Format version : Version 1
Format profile : Layer 3
Codec ID : 55
Codec ID/Hint : MP3
Duration : 1h 46mn
Bit rate mode : Constant
Bit rate : 128 Kbps
Minimum bit rate : 128 Kbps
Channel(s) : 2 channels
Sampling rate : 48.0 KHz
Resolution : 16 bits
Stream size : 97.1 MiB
Writing library : LAME3.97
Encoding settings : CBR

Source: NTSC IVTC (note that PAL/NTSC will give no problems for avi files)

Thanks to Kuthumi!

Grab it, seed it, enjoy it!

related torrents

Torrent name

health leech seeds Size

Mr & Mrs Loving (1996)

0 2 1.16 GB 0
 


comments (0)

Main Menu