Comedy

Miss March[2009]DvDrip LW

  • Download 5x Faster
  • Download torrent
  • Direct Download
  • Rate this torrent +  |  -
Miss March[2009]DvDrip LW

Anonymous and free Direct Download 300GB+


Torrent info

Name:Miss March[2009]DvDrip LW

Total Size: 698.82 MB

Magnet: Magnet Link

Seeds: 6

Leechers: 4

Stream: Watch Online @ Movie4u

Last Updated: 2010-09-22 11:24:49 (Update Now)

Torrent added: 2009-08-31 13:25:56



VPN For Torrents

Torrent Files List


Covers (Size: 698.82 MB) (Files: 7)

 Covers

  Cover.jpg

59.01 KB

  DvD Cover.jpg

47.97 KB

 Info

  Movie Info.nfo

4.27 KB

  Movie Info.txt

3.11 KB

 Movie

  Miss March[2009]DvDrip-LW.avi

698.71 MB

 Trackers

  Torrent_downloaded_from_Demonoid.com.txt

0.05 KB

  tracked_by_h33t_com.txt

0.02 KB
 

Announce URL: http://www.h33t.com:3310/announce

Torrent description

) (`-. (` .-') /` ) (`-.
( OO ). `.( OO ),' ( OO ).
(_/. _)-.-'),-----. ,--. ,--./ .--. .-'),-----.(_/. _)-.
`.' ( OO' .-. '| |.-') | | | ( OO' .-. ' `.' /
/Y | | | || | OO )| | | |,/ | | | | /
_) | || || |`-' || |.'.| |_)_) | || | |
.' _) | | | (| '---.'| | | | | | .' _)
/ .'. `' '-' '| | | ,'. | `' '-' '/ .'.
'--' '--' `-----' `------' '--' '--' `-----''--' '--'


ßßßßßßßßßßßßßßßßßßßßßßßßßßßßßßßßßßßßßßßßßßßßßßßßßßßßßßßßßßßßßßßßßßßßßß

Û°°°°°°°°°°°°°°°°°°°°°°°°°°°Û
ÛÛ Miss March[2009]DvDrip-LW ÛÛ
Û°°°°°°°°°°°°°°°°°°°°°°°°°°°Û

File Name : Miss March[2009]DvDrip-LW
Type : Movie
Format : AVI
File Size : 698 Mb
Duration : 01:33:31
Language : English
Source : DvD
Subtitles : None
Genre : Comedy
IMDB Link : http://www.imdb.com/title/tt1151922/
IMDB Rating : 4.9/10
IMDB Votes : 1,379 Votes
ÜÜÜÜÜÜÜÜÜÜÜÜÜÜÜÜÜÜÜÜÜÜÜÜÜÜÜÜÜÜÜÜÜÜÜÜÜÜÜÜÜÜÜÜÜÜÜÜÜÜÜÜÜÜÜÜÜÜÜÜÜÜÜÜÜÜÜÜÜÜ

Û°°°°°°°°°°°°°°°°°°°°°°°°Û
ÛÛ Video Info ÛÛ
Û°°°°°°°°°°°°°°°°°°°°°°°°Û

Format : MPEG-4 Visual
Format profile : Streaming [email protected]
Format settings, BVOP : Yes
Format settings, QPel : No
Format settings, GMC : No warppoints
Format settings, Matrix : Default (H.263)
Muxing mode : Packed bitstream
Codec ID : XVID
Codec ID/Hint : XviD
Duration : 1h 33mn
Bit rate : 902 Kbps
Width : 624 pixels
Height : 336 pixels
Display aspect ratio : 1.857
Frame rate : 23.976 fps
Resolution : 24 bits
Colorimetry : 4:2:0
Scan type : Progressive
Bits/(Pixel*Frame) : 0.180
Stream size : 604 MiB (86%)
Writing library : XviD 1.2.1
ÜÜÜÜÜÜÜÜÜÜÜÜÜÜÜÜÜÜÜÜÜÜÜÜÜÜÜÜÜÜÜÜÜÜÜÜÜÜÜÜÜÜÜÜÜÜÜÜÜÜÜÜÜÜÜÜÜÜÜÜÜÜÜÜÜÜÜÜÜÜ

Û°°°°°°°°°°°°°°°°°°°°°°°°Û
ÛÛ Sound Info ÛÛ
Û°°°°°°°°°°°°°°°°°°°°°°°°Û

Format : MPEG Audio
Format version : Version 1
Format profile : Layer 3
Codec ID : 55
Codec ID/Hint : MP3
Duration : 1h 33mn
Bit rate mode : Variable
Bit rate : 129 Kbps
Nominal bit rate : 128 Kbps
Channel(s) : 2 channels
Sampling rate : 48.0 KHz
Resolution : 16 bits
Stream size : 86.5 MiB (12%)
Alignment : Aligned on interleaves
Interleave, duration : 24 ms (0.58 video frame)
Interleave, preload duration : 142 ms
Writing library : LAME3.90.
Encoding settings : ABR
Language : English
ÜÜÜÜÜÜÜÜÜÜÜÜÜÜÜÜÜÜÜÜÜÜÜÜÜÜÜÜÜÜÜÜÜÜÜÜÜÜÜÜÜÜÜÜÜÜÜÜÜÜÜÜÜÜÜÜÜÜÜÜÜÜÜÜÜÜÜÜÜÜ

Û°°°°°°°°°°°°°°°°°°°°°°°°Û
ÛÛ Plot ÛÛ
Û°°°°°°°°°°°°°°°°°°°°°°°°Û

Four years after falling into a coma, Eugene
(Zach Cregger) comes to, only to discover that his
high school sweetheart (Raquel Alessi) has traded
her virginity for a centerfold spot in a popular
men's magazine. Crashing a mansion full of hot
women and getting Miss March to take him back
might take a miracle. But with nothing to lose --
and his sex-crazed friend (Trevor Moore) egging
him on -- he's determined to get the girl.

Starring: Raquel Alessi, Molly Stanton

Director: Trevor Moore
ÜÜÜÜÜÜÜÜÜÜÜÜÜÜÜÜÜÜÜÜÜÜÜÜÜÜÜÜÜÜÜÜÜÜÜÜÜÜÜÜÜÜÜÜÜÜÜÜÜÜÜÜÜÜÜÜÜÜÜÜÜÜÜÜÜÜÜÜÜÜ

related torrents

Torrent name

health leech seeds Size
 


comments (0)

Main Menu