Comedy

Mickybo & Me (2005) DVDRip ENG

  • Download 5x Faster
  • Download torrent
  • Direct Download
  • Rate this torrent +  |  -
Mickybo & Me (2005) DVDRip ENG

Anonymous and Free Direct Download 300GB+


Torrent info

Name:Mickybo & Me (2005) DVDRip ENG

Total Size: 628.34 MB

Magnet: Magnet Link

Seeds: 0

Leechers: 0

Stream: Watch Online @ Movie4u

Last Updated: 2010-07-30 01:13:30 (Update Now)

Torrent added: 2009-08-31 13:16:54



VPN For Torrents

Torrent Files List


Mickybo & Me 2005 - DVDRip - ENG.avi (Size: 628.34 MB) (Files: 3)

 Mickybo & Me 2005 - DVDRip - ENG.avi

628.32 MB

 Mickybo & Me 2005 - DVDRip - ENG.nfo

11.65 KB

 Tracked_by_Demonoid_com.txt

0.03 KB
 

Announce URL: http://tracker.thepiratebay.org/announce

Torrent description

IMDB: http://uk.imdb.com/title/tt0388154/
User Rating: 7.2/10 (529votes)
Release Date: 25 March 2005 (UK)
Genre: Comedy | Drama

Plot: The film tells the story of two boys who become friends at the start of the Troubles in 1970. The boys share an obsession with Butch Cassidy and the Sundance Kid, with the consequence that they run away to Australia.



General
Complete name : Mickybo & Me 2005 - DVDRip - ENG.avi
Format : AVI
Format/Info : Audio Video Interleave
File size : 628 MiB
Duration : 1h 31mn
Overal bit rate : 963 Kbps
Writing application : VirtualDubMod 1.5.4.1 (build 2178/release)
Writing library : VirtualDubMod build 2178/release
IAS1 : English

Video
Format : MPEG-4 Visual
Format profile : Streaming [email protected]
Format settings, BVOP : Yes
Format settings, QPel : No
Format settings, GMC : No warppoints
Format settings, Matrix : Default
Muxing mode : Packet Bitstream
Codec ID : XVID
Codec ID/Hint : XviD
Duration : 1h 31mn
Bit rate : 764 Kbps
Width : 608 pixels
Height : 272 pixels
Display aspect ratio : 2.25
Frame rate : 25.000 fps
Resolution : 8 bits
Colorimetry : 4:2:0
Scan type : Progressive
Bits/(Pixel*Frame) : 0.185
Stream size : 498 MiB (79%)
Writing library : XviD 1.2.0.dev47 (UTC 2006-11-01)

Audio
Format : MPEG Audio
Format version : Version 1
Format profile : Layer 3
Codec ID : 55
Codec ID/Hint : MP3
Duration : 1h 31mn
Bit rate mode : Constant
Bit rate : 192 Kbps
Minimum bit rate : 192 Kbps
Channel(s) : 2 channels
Sampling rate : 48.0 KHz
Resolution : 16 bits
Stream size : 125 MiB (20%)
Writing library : LAME3.97
Encoding settings : CBR

Trackers:
http://www.torrent-downloads.to:5869/announce
http://open.tracker.thepiratebay.org:80/announce
http//tpb.tracker.thepiratebay.org:80/announce
http://vip.tracker.thepiratebay.org/announce

Info Hash: CC9499FB3B99ED30DC983FD1836E720309D77E84

related torrents

Torrent name

health leech seeds Size

mickybo and me

1 2 859.38 MB 0

Mickybo And Me Dvdrip

0 0 859.00 MB 0
 


comments (0)

Main Menu