Comedy

Mein Führer Die wirklich wahrste Wahrheit über Adolf Hitler rar

  • Download 5x Faster
  • Download torrent
  • Direct Download
  • Rate this torrent +  |  -


Torrent info

Name:Mein Führer Die wirklich wahrste Wahrheit über Adolf Hitler rar

Total Size: 699.15 MB

Magnet: Magnet Link

Seeds: 0

Leechers: 0

Stream: Watch Online @ Movie4u

Last Updated: 0000-00-00 00:00:00 (Update Now)

Torrent added: 2009-08-31 13:05:37



VPN For Torrents

Torrent Files List


Mein Führer - Die wirklich wahrste Wahrheit über Adolf Hitler.rar (Size: 699.15 MB) (Files: 1)

 Mein Führer - Die wirklich wahrste Wahrheit über Adolf Hitler.rar

699.15 MB
 

Announce URL: http://most-wanted.webhop.org/announce.php

Torrent description

Mein Fhrer - Die wirklich wahrste Wahrheit ber Adolf Hitler


Format : AVI
Format/Info : Audio Video Interleave
File size : 704 MiB
Duration : 1h 30mn
Overall bit rate : 1 082 Kbps

Video
ID : 0
Format : MPEG-4 Visual
Format profile : Streaming [email protected]
Format settings, BVOP : Yes
Format settings, QPel : No
Format settings, GMC : No warppoints
Format settings, Matrix : Default (H.263)
Codec ID : XVID
Codec ID/Hint : XviD
Duration : 1h 30mn
Bit rate : 944 Kbps
Width : 640 pixels
Height : 356 pixels
Display aspect ratio : 16/9
Frame rate : 25.000 fps
Resolution : 24 bits
Colorimetry : 4:2:0
Scan type : Progressive
Bits/(Pixel*Frame) : 0.166
Stream size : 614 MiB (87)
Writing library : XviD 1.2.0.dev47 (UTC 2006-11-01)

Audio
ID : 1
Format : MPEG Audio
Format version : Version 1
Format profile : Layer 3
Codec ID : 55
Codec ID/Hint : MP3
Duration : 1h 30mn
Bit rate mode : Constant
Bit rate : 128 Kbps
Channel(s) : 2 channels
Sampling rate : 48.0 KHz
Resolution : 16 bits
Stream size : 83.3 MiB (12)
Alignment : Aligned on interleaves
Interleave, duration : 40 ms (1.00 video frame)
Interleave, preload duration : 480 ms

bedanken tut nicht weh !!! bitte seeden nicht vergessen!!!!

related torrents

Torrent name

health leech seeds Size
 


comments (0)

Main Menu