Comedy

Major Movie Star Repack VOSTFR DVDRip XviD FLF

  • Download 5x Faster
  • Download torrent
  • Direct Download
  • Rate this torrent +  |  -
Major Movie Star Repack VOSTFR DVDRip XviD FLF

Anonymous and Free Direct Download 300GB+


Torrent info

Name:Major Movie Star Repack VOSTFR DVDRip XviD FLF

Total Size: 698.49 MB

Magnet: Magnet Link

Seeds: 0

Leechers: 0

Stream: Watch Online @ Movie4u

Last Updated: 2010-09-25 14:00:43 (Update Now)

Torrent added: 2009-08-31 12:57:48



VPN For Torrents

Torrent Files List


Major.Movie.Star.Repack.VOSTFR.DVDRip.XviD-FLF.avi (Size: 698.49 MB) (Files: 3)

 Major.Movie.Star.Repack.VOSTFR.DVDRip.XviD-FLF.avi

698.40 MB

 Major.Movie.Star.Repack.VOSTFR.DVDRip.XviD-FLF.nfo

8.02 KB

 Major.Movie.Star.Repack.VOSTFR.DVDRip.XviD-FLF.srt

85.76 KB
 

Announce URL: http://open.tracker.thepiratebay.org/announce

Torrent description

>..::" Major.Movie.Star "::..<

>Dâte : 2009<
>Times : 01H28mn<
>Genre : COMEDY<
>Language : ENGLISH<
>Subtitles : FRENCH<
_______________________________________________________________________

>Rate [ I M D B ] : http://www.imdb.com/title/tt1034320/ 3.3/10
>Ripped Release Date : 19/03/2009<
>Team : F L F<
_______________________________________________________________________

>:..Info Movie..:<

General
Complete name : Major.Movie.Star.Repack.VOSTFR.DVDRip.XviD-FLF
Format : AVI
Format/Info : Audio Video Interleave
File size : 698 MiB
Duration : 1h 38mn
Overall bit rate : 992 Kbps

Video
Format : MPEG-4 Visual
Format profile : Streaming [email protected]
Format settings, BVOP : Yes
Format settings, QPel : No
Format settings, GMC : No warppoints
Format settings, Matrix : Default
Muxing mode : Packed bitstream
Codec ID : XVID
Codec ID/Hint : XviD
Duration : 1h 38mn
Bit rate : 536 Kbps
Width : 704 pixels
Height : 288 pixels
Display aspect ratio : 2.444
Frame rate : 23.976 fps
Resolution : 24 bits
Colorimetry : 4:2:0
Scan type : Progressive
Bits/(Pixel*Frame) : 0.110
Stream size : 377 MiB (54%)
Writing library : XviD 1.2.1 (UTC 2008-12-04)

Audio
Format : AC-3
Format/Info : Audio Coding 3
Codec ID : 2000
Duration : 1h 38mn
Bit rate mode : Constant
Bit rate : 448 Kbps
Channel(s) : 6 channels
Channel positions : Front: L C R, Surround: L R, LFE
Sampling rate : 48.0 KHz
Video delay : 500ms
Stream size : 315 MiB (45%)
Alignment : Split accross interleaves
Interleave, duration : 64 ms (1.53 video frames)
Interleave, preload duration : 500 ms
_______________________________________________________________________

related torrents

Torrent name

health leech seeds Size
 


comments (0)

Main Menu