Trance / House / Dance

TTBA Mix Mix Ete 2007 By DJ T 2007 rar

  • Download 5x Faster
  • Download torrent
  • Direct Download
  • Rate this torrent +  |  -
TTBA Mix Mix Ete 2007 By DJ T 2007 rar

Anonymous and Free Direct Download


Torrent info

Name:TTBA Mix Mix Ete 2007 By DJ T 2007 rar

Total Size: 92.99 MB

Magnet: Magnet Link

Seeds: 0

Leechers: 0

Stream: Watch Online @ Movie4u

Last Updated: 2010-07-16 09:05:20 (Update Now)

Torrent added: 2009-08-31 12:40:11



VPN For Torrents

Torrent Files List


TTBA Mix - Mix Ete 2007 By DJ T - 2007.rar (Size: 92.99 MB) (Files: 1)

 TTBA Mix - Mix Ete 2007 By DJ T - 2007.rar

92.99 MB
 

Announce URL: http://open.tracker.thepiratebay.org/announce

Torrent description

PERFORMER "TTBA Mix"
TITLE "Mix Ete 2007 By DJ T"
FILE "Mix DJ T" MP3
TRACK 01 AUDIO
TITLE "Intro Carry On"
PERFORMER "Mantha Wash"
INDEX 01 00:00:00
TRACK 02 AUDIO
TITLE "White lines"
PERFORMER "Bionik Phunk"
INDEX 01 00:53:00
TRACK 03 AUDIO
TITLE "My House"
PERFORMER "Tom Novy"
INDEX 01 04:06:00
TRACK 04 AUDIO
TITLE "Sex With Sax"
PERFORMER "Zivago"
INDEX 01 06:05:00
TRACK 05 AUDIO
TITLE "Go Deeper"
PERFORMER "Stephan M And Nicky Scanni Feat. Nadia"
INDEX 01 10:38:00
TRACK 06 AUDIO
TITLE "Distination Calabira (Nari And Milani Remix)"
PERFORMER "Alex Gaudino"
INDEX 01 14:33:00
TRACK 07 AUDIO
TITLE "Kill The DJ"
PERFORMER "Lele Cecchini Pres Spades Affair"
INDEX 01 17:58:00
TRACK 08 AUDIO
TITLE "Katana"
PERFORMER "Max Voice"
INDEX 01 22:09:00
TRACK 09 AUDIO
TITLE "Have it all(Whiteside Vs Jorge Martin S Dub Adventure)"
PERFORMER "Whiteside Feat.Candy Williams"
INDEX 01 25:50:00
TRACK 10 AUDIO
TITLE "Fallen Angel"
PERFORMER "Leisuregrouve feat Sevi G"
INDEX 01 27:53:00
TRACK 11 AUDIO
TITLE "Love To Love You Baby"
PERFORMER "David Vendetta"
INDEX 01 30:45:00
TRACK 12 AUDIO
TITLE "Haute Couture (Vocal Mix)"
PERFORMER "Paris"
INDEX 01 33:22:00
TRACK 13 AUDIO
TITLE "E For Electro"
PERFORMER "Johnny Crockett"
INDEX 01 30:40:00
TRACK 14 AUDIO
TITLE "Micromania (Original Version)"
PERFORMER "Tata Golosa"
INDEX 01 39:44:00
TRACK 15 AUDIO
TITLE "Is it Love (Chris Ortega Remix)"
PERFORMER "Llo"
INDEX 01 42:57:00
TRACK 16 AUDIO
TITLE "Related"
PERFORMER "Samuel L Session"
INDEX 01 44:59:00
TRACK 17 AUDIO
TITLE "Can You Relat"
PERFORMER "Samuel L Session"
INDEX 01 47:38:00



Just Enjoy It from tunisia

The best of the best House Mix By DJ T

related torrents

Torrent name

health leech seeds Size
 


comments (0)

Main Menu