Comedy

Love Wrecked (2005) DVDRip MP3 ENG

  • Download 5x Faster
  • Download torrent
  • Direct Download
  • Rate this torrent +  |  -
Love Wrecked (2005) DVDRip MP3 ENG

Anonymous and Free Direct Download 300GB+


Torrent info

Name:Love Wrecked (2005) DVDRip MP3 ENG

Total Size: 700.03 MB

Magnet: Magnet Link

Seeds: 0

Leechers: 0

Stream: Watch Online @ Movie4u

Last Updated: 0000-00-00 00:00:00 (Update Now)

Torrent added: 2009-08-31 12:39:04



VPN For Torrents

Torrent Files List


Love Wrecked (2005) - MP3 - ENG.avi (Size: 700.03 MB) (Files: 3)

 Love Wrecked (2005) - MP3 - ENG.avi

700.02 MB

 Love Wrecked (2005) - MP3 - ENG.nfo

10.96 KB

 Tracked_by_Demonoid_com.txt

0.03 KB
 

Announce URL:

Torrent description

Love Wrecked (2005)


IMDB: http://www.imdb.com/title/tt0409011/
User Rating: 5.1/10 2,169 votes
Release Date: 18 May 2007 (UK)
Genre: Adventure | Comedy | Romance
Tagline: He got them lost. She's keeping it that way

Plot:
An 18-year-old girl is ecstatic when she finds out that her favorite rock star is a guest at
the tropical resort where she is working for the summer. When they are both thrown overboard
during a cruise and find themselves stranded on a remote beach, she fails to tell him the
beach is just down the road from the resort.

Cast:
Amanda Bynes ... Jenny Taylor
Chris Carmack ... Jason Masters
Jonathan Bennett ... Ryan Howell
Jamie-Lynn Sigler ... Alexis Manetti (as Jamie-Lynn DiScala)
Susan Duerden ... Bree Taylor
Fred Willard ... Ben Taylor
Jackie Long ... Chase
Joey Kern ... Milo Dinsdale
Lance Bass ... Cell Phone Dan
Kathy Griffin ... Belinda
Alfonso Ribeiro ... Brent Hernandez



Screenshots:

Love Wrecked (2005)   DVDRip   MP3   ENG preview 1
Love Wrecked (2005)   DVDRip   MP3   ENG preview 2
Love Wrecked (2005)   DVDRip   MP3   ENG preview 3
Love Wrecked (2005)   DVDRip   MP3   ENG preview 4
Love Wrecked (2005)   DVDRip   MP3   ENG preview 0


General
Complete name : Love Wrecked (2005) - DVDRip - MP3 - ENG.avi
Format : AVI
Source : Pal DVD
File size : 700 MiB
Duration : 1h 23mn
Overal bit rate : 1178 Kbps
Language : English

Video
Format : MPEG-4 Visual
Codec ID : XviD
Duration : 1h 23mn
Bit rate : 1043 Kbps
Width : 576 pixels
Height : 320 pixels
Display aspect ratio : 16/9
Frame rate : 25.000 fps
Resolution : 8 bits
Colorimetry : 4:2:0
Scan type : Progressive
Bits/(Pixel*Frame) : 0.226
Stream size : 620 MiB (89%)

Audio
Format : MPEG Audio
Format version : Version 1
Format profile : Layer 3
Codec ID/Hint : MP3
Duration : 1h 23mn
Bit rate mode : Constant
Bit rate : 128 Kbps
Channel(s) : 2 channels
Sampling rate : 48.0 KHz
Resolution : 16 bits
Stream size : 76.0 MiB (11%)
Writing library : LAME3.98r
Encoding settings : CBR



Trackers:

http://inferno.demonoid.com:3406/announce
http://tpb.tracker.thepiratebay.org:80/announce
http://denis.stalker.h3q.com:6969/announce
http://www.torrent-downloads.to:5869/announce
http://vip.tracker.thepiratebay.org/announce


Info Hash: 237A48709F0D5C2A8E9CD9D5ADD1C07B92408588



Enjoy, and please seed.

related torrents

Torrent name

health leech seeds Size

Love Wrecked

0 0 699.81 MB 0

DVD LOVE WRECKED avi [

0 0 532.28 MB 0
 


comments (0)

Main Menu