Comedy

Meet Dave 2008 DVDRip XviD Cocc

  • Download 5x Faster
  • Download torrent
  • Direct Download
  • Rate this torrent +  |  -
Meet Dave 2008 DVDRip XviD Cocc

Anonymous and Free Direct Download 300GB+


Torrent info

Name:Meet Dave 2008 DVDRip XviD Cocc

Total Size: 701.24 MB

Magnet: Magnet Link

Seeds: 0

Leechers: 0

Stream: Watch Online @ Movie4u

Last Updated: 2009-12-04 10:12:44 (Update Now)

Torrent added: 2009-08-31 12:37:28



VPN For Torrents

Torrent Files List


Meet.Dave.2008.DVDRip.XviD-Cocc.avi (Size: 701.24 MB) (Files: 2)

 Meet.Dave.2008.DVDRip.XviD-Cocc.avi

700.01 MB

 Sub.rar

1.23 MB
 

Announce URL: http://vip.tracker.thepiratebay.org:80/announce

Torrent description

Meet Dave (2008)

In a New York City apartment a young boy named Josh Morrison
(Austin Lynd Myers) watches through his telescope an approaching
object coming from the sky. It is a baseball-sized metal ball
which flies through the window of his room. He keeps it and shows
it at school in a science class presentation. Some months later,
on Liberty Island a massive fireball crash lands. The fireball is
actually a Human sized spaceship (Eddie Murphy). It is controlled
by 100 aliens, each one inch tall. Its captain (also played by
Murphy and looking like Dave) pilots the spaceship along with his
crew from inside its head. For people the spaceship seems fairly
human, but odd and with superpowers. A superstitious cop named
Officer Dooley (Scott Caan) and is desperately searching for the ship.





Subtitles; Sv,En


IMDb http://www.imdb.com/title/tt0765476/





General
Complete name : Meet.Dave.2008.DVDRip.XviD-Cocc.avi
Format : AVI
Format/Info : Audio Video Interleave
File size : 700 MiB
Duration : 1h 30mn
Overall bit rate : 1 083 Kbps

Video
Format : MPEG-4 Visual
Format profile : Streaming Video@L1
Format settings, BVOP : Yes
Format settings, QPel : No
Format settings, GMC : No warppoints
Format settings, Matrix : Default
Codec ID : XVID
Codec ID/Hint : XviD
Duration : 1h 30mn
Bit rate : 925 Kbps
Width : 624 pixels
Height : 336 pixels
Display aspect ratio : 1.857
Frame rate : 23.976 fps
Resolution : 24 bits
Colorimetry : 4:2:0
Scan type : Progressive
Bits/(Pixel*Frame) : 0.184
Stream size : 598 MiB (85%)
Writing library : XviD 1.1.2 (UTC 2006-11-01)

Audio
Format : MPEG Audio
Format version : Version 1
Format profile : Layer 3
Codec ID : 55
Codec ID/Hint : MP3
Duration : 1h 30mn
Bit rate mode : Variable
Bit rate : 145 Kbps
Minimum bit rate : 128 Kbps
Channel(s) : 2 channels
Sampling rate : 48.0 KHz
Resolution : 16 bits
Stream size : 93.6 MiB (13%)
Alignment : Aligned on interleaves
Interleave, duration : 24 ms (0.58 video frame)
Interleave, preload duration : 123 ms
Writing library : LAME3.92
Encoding settings : VBR (rh)

Created with: DP MediaInfo version 1.05 (c) by Dirk Paehl
MediaInfoLib - v0.7.7.6

related torrents

Torrent name

health leech seeds Size
 


comments (0)

Main Menu