Comedy

LOOK WHOS TALKING[DVDRIP][ENG] KIDZCORNER&J T R

  • Download 5x Faster
  • Download torrent
  • Direct Download
  • Rate this torrent +  |  -
LOOK WHOS TALKING[DVDRIP][ENG] KIDZCORNER&J T R

Free and Direct Download with Usenet.nl 300GB+ free


Torrent info

Name:LOOK WHOS TALKING[DVDRIP][ENG] KIDZCORNER&J T R

Total Size: 698.87 MB

Magnet: Magnet Link

Seeds: 0

Leechers: 0

Stream: Watch Online @ Movie4u

Last Updated: 0000-00-00 00:00:00 (Update Now)

Torrent added: 2009-08-31 12:26:25





Torrent Files List


555051_DV_L_B.JPG (Size: 698.87 MB) (Files: 5)

 555051_DV_L_B.JPG

38.20 KB

 555051_DV_L_F.JPG

21.28 KB

 lwt.avi

698.81 MB

 Torrent downloaded from Demonoid.com.txt

0.05 KB

 Tracked by moviesb4time.biz.txt

1.35 KB
 

Announce URL:

Torrent description

Starring Kirstie Alley, John Travolta and the wise-cracking voice of Bruce Willis, LOOK WHO'S TALKING is the box-office smash which takes an hilarious, off-beat look at motherhood and romance from baby Mikey's point of view. Led on and let down by boyfriend Albert (George Segal), 32 year old Mollie (Kirstie Alley) is looking for a proper father for her son...

Little Mikey favours cab driver-turned-baby sitter, James (John Travolta). It's a case of baby knows best, but by the time he learns to talk, it could be too late!


General
Complete name : C:\Users\joker\Documents\LOOK WHOS TALKING[DVDRIP][ENG]-KIDZCORNER&J.T.R\lwt.avi
Format : AVI
Format/Info : Audio Video Interleave
File size : 699 MiB
Duration : 1h 31mn
Overall bit rate : 1 062 Kbps
Writing application : FairUse Wizard - http://fairusewizard.com
Writing library : The best and REALLY easy backup tool

Video
Format : MPEG-4 Visual
Format profile : [email protected]
Format settings, BVOP : No
Format settings, QPel : No
Format settings, GMC : No warppoints
Format settings, Matrix : Default
Codec ID : XVID
Codec ID/Hint : XviD
Duration : 1h 31mn
Bit rate : 924 Kbps
Width : 672 pixels
Height : 368 pixels
Display aspect ratio : 16/9
Frame rate : 25.000 fps
Resolution : 24 bits
Colorimetry : 4:2:0
Scan type : Progressive
Bits/(Pixel*Frame) : 0.150
Stream size : 608 MiB (87%)
Writing library : XviD 1.2.0.dev47 (UTC 2006-11-01)

Audio
Format : MPEG Audio
Format version : Version 1
Format profile : Layer 3
Codec ID : 55
Codec ID/Hint : MP3
Duration : 1h 31mn
Bit rate mode : Constant
Bit rate : 128 Kbps
Minimum bit rate : 128 Kbps
Channel(s) : 2 channels
Sampling rate : 48.0 KHz
Resolution : 16 bits
Stream size : 84.2 MiB (12%)
Alignment : Aligned on interleaves
Interleave, duration : 40 ms (1.00 video frame)
Interleave, preload duration : 504 ms
Writing library : LAME3.97
Encoding settings : CBR

related torrents

Torrent name

health leech seeds Size
 

comments (0)

Main Menu