Comedy

LOOK WHOS TALKING TOO [DVDRIP][ENG] KIDZCORNER&J T R

  • Download 5x Faster
  • Download torrent
  • Direct Download
  • Rate this torrent +  |  -
LOOK WHOS TALKING TOO [DVDRIP][ENG] KIDZCORNER&J T R

Free and Direct Download with Usenet.nl 300GB+ free


Torrent info

Name:LOOK WHOS TALKING TOO [DVDRIP][ENG] KIDZCORNER&J T R

Total Size: 474.29 MB

Magnet: Magnet Link

Seeds: 6

Leechers: 1

Stream: Watch Online @ Movie4u

Last Updated: 0000-00-00 00:00:00 (Update Now)

Torrent added: 2009-08-31 12:26:20





Torrent Files List


562455_DV_L_B.JPG (Size: 474.29 MB) (Files: 5)

 562455_DV_L_B.JPG

34.06 KB

 562455_DV_L_F.JPG

24.20 KB

 LWT2.avi

474.24 MB

 Torrent downloaded from Demonoid.com-1.txt

0.05 KB

 Tracked by moviesb4time.biz.txt

1.35 KB
 

Announce URL: http://inferno.demonoid.com:3405/announce

Torrent description

In this hilarious sequel to LOOK WHO'S TALKING, little Mikey figures he's got it made after uniting his mother (Kirstie Alley - TV's Veronica's Closet, Cheers) with the dad of his dreams (John Travolta - Swordfish, Pulp Fiction). But instead of family bliss, Mikey gets the biggest surprise of his life - a baby sister.

Bruce Willis returns as the voice of Mikey, while Roseanne Barr's voice delivers baby Julie's delightful wisecracks. Together, these two fast-talking tots face a series of kiddie dilemmas, including the trials of potty training, their parents' marital squabbles, and an inevitable - but very funny - dose of sibling rivalry. As this living family is about to learn, twice the trouble is also twice the fun!

General
Complete name : C:\Users\joker\Documents\LOOK WHOS TALKING TOO-[DVDRIP][ENG]-KIDZCORNER&J.T.R\LWT2.avi
Format : AVI
Format/Info : Audio Video Interleave
File size : 474 MiB
Duration : 1h 17mn
Overall bit rate : 861 Kbps
Writing application : FairUse Wizard - http://fairusewizard.com
Writing library : The best and REALLY easy backup tool

Video
Format : MPEG-4 Visual
Format profile : Streaming [email protected]
Format settings, BVOP : Yes
Format settings, QPel : No
Format settings, GMC : No warppoints
Format settings, Matrix : Default
Muxing mode : Packed bitstream
Codec ID : XVID
Codec ID/Hint : XviD
Duration : 1h 17mn
Bit rate : 723 Kbps
Width : 672 pixels
Height : 368 pixels
Display aspect ratio : 16/9
Frame rate : 25.000 fps
Resolution : 24 bits
Colorimetry : 4:2:0
Scan type : Progressive
Bits/(Pixel*Frame) : 0.117
Stream size : 398 MiB (84%)
Writing library : XviD 1.1.2 (UTC 2006-11-01)

Audio
Format : MPEG Audio
Format version : Version 1
Format profile : Layer 3
Codec ID : 55
Codec ID/Hint : MP3
Duration : 1h 17mn
Bit rate mode : Constant
Bit rate : 128 Kbps
Minimum bit rate : 128 Kbps
Channel(s) : 2 channels
Sampling rate : 48.0 KHz
Resolution : 16 bits
Stream size : 70.5 MiB (15%)
Alignment : Aligned on interleaves
Interleave, duration : 40 ms (1.00 video frame)
Interleave, preload duration : 504 ms
Writing library : LAME3.97
Encoding settings : CBR

related torrents

Torrent name

health leech seeds Size

Look Whos Talking Too

0 0 668.76 MB 0
 

comments (0)

Main Menu