Comedy

Taming of The Shrew(1980)DVDrip{John Cleese}[H33T][Naughty Knights]

  • Download 5x Faster
  • Download torrent
  • Direct Download
  • Rate this torrent +  |  -

Torrent info

Name:Taming of The Shrew(1980)DVDrip{John Cleese}[H33T][Naughty Knights]

Total Size: 1.11 GB

Magnet: Magnet Link

Seeds: 0

Leechers: 0

Stream: Watch Online @ Movie4u

Last Updated: 2012-04-13 06:09:17 (Update Now)

Torrent added: 2009-08-31 12:24:25



VPN For Torrents

Torrent Files List


mediainfo.txt (Size: 1.11 GB) (Files: 9)

 mediainfo.txt

2.02 KB

 Shrew desc.txt

3.81 KB

 shrew.avi

1.11 GB

 shrew1.jpg

36.09 KB

 shrew2.jpg

38.39 KB

 shrew3.jpg

37.57 KB

 shrew4.jpg

30.74 KB

 shrewG-spotC.jpg

73.07 KB

 tracked_by_h33t_com.txt

0.03 KB
 

Announce URL:

Torrent description

*************************************
* IF.YOU.ENJOYED.THANK.ME.BY.SEEDING

* I.DO.NOT.ALWAYS.READ.COMMENTS

* REQUEST RESEED AT:

* www.h33tfr33sp33k.h33t.com/

*************************************

* Genre..........: Shakespearean Comedy

* Source ........: DVDrip

* Language ......: English

* Quality........: Good

* Hash ..........: 84012BA763B7D1E319C33781E09E0F26F0C0A7C0

* Tracker ......: http://www.h33t.com:3310/announce

-----------------
IMDB: http://www.imdb.com/title/tt0081597/
----------------
Description:
This production does for The Shrew what Zeffirelli's "Romeo and Juliet" did for that play: it

makes clear the central meaning of the piece. By stripping away the usual thigh-thwacking,

twinkle-in-the-eye, campy, vaudevillian action usually associated with this work, wherein the

headstrong Katherine is brought into submission by the charming rogue Petruchio, we are able

to see clearly what Petruchio's approach is: he shows Katherine her own behavior in reflection.

Petruchio is holding up the mirror for her, showing her that she is the prisoner of her own

negative emotions. And who would take the time, make the effort to do such work, if they did

not care for the person in question? This Katherine and Petruchio are not combatants, they are

soul-mates defining their understanding of each other. At their first meeting it is clear that Kate

has never had a man of such wit and character endure her raging, out of desire for her; and in

the end we see that Katherine is not broken (the famous last speech), but that at last she has

stopped thinking only of herself, and gained insight and compassion for others. I've seen a lot

of versions of this play (including Burton & Taylor, Julia & Streep, & Singer & Olster), and this is

the most adult, the most understanding, the most human. And the funniest.
--------------------------------------
MEDIAINFO:

Complete name :
Taming of The Shrew(1980)DVDrip{John Cleese}[H33T][Naughty Knights]

Format : AVI
Format/Info : Audio Video Interleave
Format profile : OpenDML
File size : 1.11 GiB
Duration : 2h 6mn
Overall bit rate : 1 256 Kbps
Writing application : AVI-Mux GUI 1.17.7, Aug 8 2006 20:59:17

Video
Format : MPEG-4 Visual
Format profile : Streaming [email protected]
Format settings, BVOP : Yes
Format settings, QPel : Yes
Format settings, GMC : No warppoints
Format settings, Matrix : Default
Codec ID : XVID
Codec ID/Hint : XviD
Duration : 2h 6mn
Bit rate : 994 Kbps
Width : 720 pixels
Height : 576 pixels
Display aspect ratio : 5/4
Frame rate : 25.000 fps
Standard : PAL
Resolution : 24 bits
Colorimetry : 4:2:0
Scan type : Progressive
Bits/(Pixel*Frame) : 0.096
Stream size : 897 MiB (79%)
Writing library : XviD 50

Audio
Format : AC-3
Format/Info : Audio Coding 3
Codec ID : 2000
Bit rate mode : Constant
Bit rate : 256 Kbps
Channel(s) : 2 channels
Channel positions : L R
Sampling rate : 48.0 KHz
Stream size : 231 MiB (20%)
Alignment : Aligned on interleaves
Interleave, duration : 64 ms (1.60 video frames)
Interleave, preload duration : 192 ms
Title : VTS_03_1 T80 2_0ch 256Kbps DELAY 0ms


related torrents

Torrent name

health leech seeds Size
 


comments (0)

Main Menu