Comedy

Legally Blondes [2009] DVDRip SIGISMUNT

  • Download 5x Faster
  • Download torrent
  • Direct Download
  • Rate this torrent +  |  -
Legally Blondes [2009] DVDRip SIGISMUNT

Free and Direct Download with Usenet.nl 300GB+ free


Torrent info

Name:Legally Blondes [2009] DVDRip SIGISMUNT

Total Size: 701.26 MB

Magnet: Magnet Link

Seeds: 0

Leechers: 0

Stream: Watch Online @ Movie4u

Last Updated: 2010-12-02 08:22:28 (Update Now)

Torrent added: 2009-08-31 11:39:43





Torrent Files List


Legally Blondes [2009] DVDRip-SIGISMUNT.avi (Size: 701.26 MB) (Files: 4)

 Legally Blondes [2009] DVDRip-SIGISMUNT.avi

701.03 MB

 Legally Blondes [2009] DVDRip-SIGISMUNT.nfo

3.08 KB

 screencaps.jpg

240.64 KB

 Torrent downloaded from Demonoid.com.txt

0.05 KB
 

Announce URL: http://tracker.thepiratebay.org/announce

Torrent description

Format : AVI
Format/Info : Audio Video Interleave
File size : 701 MiB
Duration : 1h 22mn
Overall bit rate : 1 189 Kbps
Writing application : VirtualDubMod 1.5.4.1 (build 2178/release)
Writing library : VirtualDubMod build 2178/release

Video
Format : MPEG-4 Visual
Format profile : Streaming E-mail
Format settings, BVOP : Yes
Format settings, QPel : No
Format settings, GMC : No warppoints
Format settings, Matrix : Custom
Codec ID : XVID
Codec ID/Hint : XviD
Duration : 1h 22mn
Bit rate : 1 064 Kbps
Width : 608 pixels
Height : 336 pixels
Display aspect ratio : 16/9
Frame rate : 25.000 fps
Resolution : 24 bits
Colorimetry : 4:2:0
Scan type : Progressive
Bits/(Pixel*Frame) : 0.208
Stream size : 627 MiB (89%)
Writing library : XviD 1.2.0.dev47 (UTC 2006-11-01)

Audio
Format : MPEG Audio
Format version : Version 1
Format profile : Layer 3
Codec ID : 55
Codec ID/Hint : MP3
Duration : 1h 22mn
Bit rate mode : Variable
Bit rate : 112 Kbps
Nominal bit rate : 128 Kbps
Channel(s) : 2 channels
Sampling rate : 48.0 KHz
Resolution : 16 bits
Stream size : 66.2 MiB (9%)
Alignment : Aligned on interleaves
Interleave, duration : 24 ms (0.60 video frame)
Interleave, preload duration : 164 ms
Writing library : LAME3.97
Encoding settings : -m j -V 4 -q 2 -lowpass 17 --abr 128
Language : English

http://www.imdb.com/title/tt1015999/

Screen:

Legally Blondes [2009] DVDRip SIGISMUNT preview 0

related torrents

Torrent name

health leech seeds Size
 

comments (0)

Main Menu