Comedy

Legally Blondes 2009 DVDRiP XViD SSRG Release BY DJMark

  • Download 5x Faster
  • Download torrent
  • Direct Download
  • Rate this torrent +  |  -
Legally Blondes 2009 DVDRiP XViD SSRG Release BY DJMark

Free and Direct Download with Usenet.nl 300GB+ free


Torrent info

Name:Legally Blondes 2009 DVDRiP XViD SSRG Release BY DJMark

Total Size: 699.81 MB

Magnet: Magnet Link

Seeds: 0

Leechers: 0

Stream: Watch Online @ Movie4u

Last Updated: 2015-09-03 15:29:51 (Update Now)

Torrent added: 2009-08-31 11:39:02





Torrent Files List


Legally.Blondes.2009.DVDRip.XviD..avi (Size: 699.81 MB) (Files: 3)

 Legally.Blondes.2009.DVDRip.XviD..avi

699.79 MB

 Please-Visit-Supershare.co.uk.txt

0.06 KB

 Visit-supershare.co.uk.gif

27.04 KB
 

Announce URL:

Torrent description



*******************************************************************************
Legally.Blondes.2009.DVDRip.XviD.
*******************************************************************************

-------------------------------------------------------------------------------
General Information
-------------------------------------------------------------------------------
Type.................: Movie




CODE
Movie Information....: http://www.imdb.com/title/tt1015999/


-------------------------------------------------------------------------------
Post Information
-------------------------------------------------------------------------------
Posted by............: DJMark

-------------------------------------------------------------------------------
Release Notes
-------------------------------------------------------------------------------
General
Complete name : Legally.Blondes.2009.DVDRip.XviD.avi
Format : AVI
Format/Info : Audio Video Interleave
File size : 700 MiB
Duration : 1h 22mn
Overall bit rate : 1 187 Kbps
Writing application : VirtualDubMod 1.5.4.1 (build 2178/release)
Writing library : VirtualDubMod build 2178/release

Video
Format : MPEG-4 Visual
Format profile : Streaming [email protected]
Format settings, BVOP : Yes
Format settings, QPel : No
Format settings, GMC : No warppoints
Format settings, Matrix : Custom
Codec ID : XVID
Codec ID/Hint : XviD
Duration : 1h 22mn
Bit rate : 1 062 Kbps
Width : 608 pixels
Height : 352 pixels
Display aspect ratio : 16/9
Frame rate : 25.000 fps
Resolution : 24 bits
Colorimetry : 4:2:0
Scan type : Progressive
Bits/(Pixel*Frame) : 0.199
Stream size : 626 MiB (89%)
Writing library : XviD 1.1.0 (UTC 2005-11-22)
Tracker Thepiratebay
Group SuperShareRG
Audio
Format : MPEG Audio
Format version : Version 1
Format profile : Layer 3
Codec ID : 55
Codec ID/Hint : MP3
Duration : 1h 22mn
Bit rate mode : Variable
Bit rate : 112 Kbps
Nominal bit rate : 128 Kbps
Channel(s) : 2 channels
Sampling rate : 48.0 KHz
Resolution : 16 bits
Stream size : 66.0 MiB (9%)
Alignment : Aligned on interleaves
Interleave, duration : 24 ms (0.60 video frame)
Interleave, preload duration : 164 ms
Writing library : LAME3.98r
Encoding settings : -m j -V 4 -q 2 -lowpass 17 --abr 128

SCREENS......
Legally Blondes 2009 DVDRiP XViD SSRG Release BY DJMark preview 0
Legally Blondes 2009 DVDRiP XViD SSRG Release BY DJMark preview 1
Legally Blondes 2009 DVDRiP XViD SSRG Release BY DJMark preview 2

Cast
(Credited cast)
Trevor Blanding ... Student

Chloe Bridges ... Ashley

Chad Broskey ... Justin Whitley

Bobby Campo ... Chris

Tanya Chisholm ... Marcie

Brittany Curran ... Tiffany

Trevor Duke ... Nigel

Caroline Fogarty ... Ruth
Teo Olivares ... Rainbow

Camilla Rosso ... Annabelle Woods

Rebecca Rosso ... Isabelle Woods

Christoph Sanders ... Brad

Kunal Sharma ... Vivek

related torrents

Torrent name

health leech seeds Size
 

comments (0)

Main Menu