Trance / House / Dance

THe Perfect Trance Continous Mix By Suzy Solar FLAC [RedJack1177]

  • Download 5x Faster
  • Download torrent
  • Direct Download
  • Rate this torrent +  |  -


Torrent info

Name:THe Perfect Trance Continous Mix By Suzy Solar FLAC [RedJack1177]

Total Size: 465.97 MB

Magnet: Magnet Link

Seeds: 0

Leechers: 5

Stream: Watch Online @ Movie4u

Last Updated: 2010-08-17 12:41:26 (Update Now)

Torrent added: 2009-08-31 11:03:33




Torrent Files List


Log Files (Size: 465.97 MB) (Files: 18)

 Log Files

  The Perfect Trance.log

6.43 KB

  The Perfect Trance.cue

3.08 KB

 The Perfect Trance-Suzy Solar-Hentai (Original Mix) - Jose Amnesia-Suzy Solar .flac

42.19 MB

 The Perfect Trance-Suzy Solar-I Dominate U (Gary D. & Dr. Z Remix) - Pulsedriver V-Suzy Solar .flac

40.06 MB

 The Perfect Trance-Suzy Solar-Emotions (Last Edit) - Total Recall-Suzy Solar .flac

40.02 MB

 The Perfect Trance-Suzy Solar-Exceptionally Beautiful - Loop Control-Suzy Solar .flac

38.71 MB

 The Perfect Trance-Suzy Solar-The Concept (U.F.O. Remix) - DJ Julio-Suzy Solar .flac

37.44 MB

 The Perfect Trance-Suzy Solar-A World Of Love (12 Mix) - Len'N'Frank-Suzy Solar .flac

37.32 MB

 The Perfect Trance-Suzy Solar-Sky Is The Limit (DJ Pain's Midnight Mix) - Scoope-Suzy Solar .flac

37.22 MB

 The Perfect Trance-Suzy Solar-Remember (Essential Mix) - Astral Inc.-Suzy Solar .flac

34.53 MB

 The Perfect Trance-Suzy Solar-Sweet Sugar (Original Mix) - DJ Fog-Suzy Solar .flac

34.42 MB

 The Perfect Trance-Suzy Solar-Colours (On The Beach Mix) - DJ Mind X-Suzy Solar .flac

33.73 MB

 The Perfect Trance-Suzy Solar-On-Y-Va (Allan McLoud Remix) - Karuma-Suzy Solar .flac

30.27 MB

 The Perfect Trance-Suzy Solar-Be Free - El Dorado-Suzy Solar .flac

30.23 MB

 The Perfect Trance-Suzy Solar-Toit Du Monde (Trance Mix) - Robotronic Squad-Suzy Solar .flac

29.77 MB

 Album Artwork.jpg

33.59 KB

 audiochecker.log

3.78 KB

 tracked_by_h33t_com.txt

0.02 KB
 

Announce URL: http://www.h33t.com:3310/announce

Torrent description

The Perfect Trance-Continuous Mix By Suzy Solar

Great Album If you Like Trance

Please Seed Enjoy!!!

This is the EAC (Exact Audio Copy) To prove everything is up to par

In .FLAC!!


Exact Audio Copy V0.99 prebeta 5 from 4. May 2009

EAC extraction logfile from 1. July 2009, 15:46

Mix by Suzy Solar / The Perfect Trance

Used drive : LITE-ON LTR-48246S Adapter: 2 ID: 1

Read mode : Secure
Utilize accurate stream : Yes
Defeat audio cache : Yes
Make use of C2 pointers : Yes

Read offset correction : 6
Overread into Lead-In and Lead-Out : No
Fill up missing offset samples with silence : Yes
Delete leading and trailing silent blocks : No
Null samples used in CRC calculations : No
Used interface : Installed external ASPI interface
Gap handling : Appended to previous track

Used output format : User Defined Encoder
Selected bitrate : 1006 kBit/s
Quality : High
Add ID3 tag : No
Command line compressor : H:\Documents\Downloads\Exact Audio Copy\FLAC\FLAC.EXE
Additional command line options : -6 -V -T "ARTIST=%a" -T "TITLE=%t" -T "ALBUM=%g" -T "DATE=%y" -T "TRACKNUMBER=%n" -T "GENRE=%m" -T "COMMENT=%e" %s -o %d


TOC of the extracted CD

Track | Start | Length | Start sector | End sector
---------------------------------------------------------
1 | 0:00.00 | 4:34.42 | 0 | 20591
2 | 4:34.42 | 4:08.10 | 20592 | 39201
3 | 8:42.52 | 5:58.20 | 39202 | 66071
4 | 14:40.72 | 5:17.63 | 66072 | 89909
5 | 19:58.60 | 5:41.27 | 89910 | 115511
6 | 25:40.12 | 3:55.13 | 115512 | 133149
7 | 29:35.25 | 4:05.42 | 133150 | 151566
8 | 33:40.67 | 4:52.53 | 151567 | 173519
9 | 38:33.45 | 5:51.37 | 173520 | 199881
10 | 44:25.07 | 4:57.43 | 199882 | 222199
11 | 49:22.50 | 5:27.02 | 222200 | 246726
12 | 54:49.52 | 4:57.33 | 246727 | 269034
13 | 59:47.10 | 5:13.52 | 269035 | 292561


Track 1

Filename Mix by Suzy Solar - The Perfect Trance - 01. DJ Mind X , Colours (On The Beach Mix).wav

Pre-gap length 0:00:02.00

Peak level 97.6 %
Track quality 100.0 %
Test CRC 07A78572
Copy CRC 07A78572
Accurately ripped (confidence 1) [CDA0DAAE]
Copy OK

Track 2

Filename Mix by Suzy Solar - The Perfect Trance - 02. Robotronic Squad , Toit Du Monde (Trance Mix).wav

Peak level 97.6 %
Track quality 100.0 %
Test CRC FD66EA69
Copy CRC FD66EA69
Accurately ripped (confidence 1) [C22CCA26]
Copy OK

Track 3

Filename Mix by Suzy Solar - The Perfect Trance - 03. Jose Amnesia , Hentai (Original Mix).wav

Peak level 97.6 %
Track quality 99.9 %
Test CRC 3F1EC77E
Copy CRC 3F1EC77E
Accurately ripped (confidence 1) [F823D3B2]
Copy OK

Track 4

Filename Mix by Suzy Solar - The Perfect Trance - 04. Scoope , Sky is the Limit (DJ Pain's Midnight Remix).wav

Peak level 97.6 %
Track quality 100.0 %
Test CRC 012D335C
Copy CRC 012D335C
Accurately ripped (confidence 1) [A3B21366]
Copy OK

Track 5

Filename Mix by Suzy Solar - The Perfect Trance - 05. Total Recall , Emotions (Last Edit).wav

Peak level 97.6 %
Track quality 99.9 %
Test CRC 54689EB4
Copy CRC 54689EB4
Accurately ripped (confidence 1) [052724B2]
Copy OK

Track 6

Filename Mix by Suzy Solar - The Perfect Trance - 06. Karuma , On-Y-Va (Allan Mc Loud Remix).wav

Peak level 97.6 %
Track quality 100.0 %
Test CRC 1C1185A2
Copy CRC 1C1185A2
Accurately ripped (confidence 1) [D713C97A]
Copy OK

Track 7

Filename Mix by Suzy Solar - The Perfect Trance - 07. El Dorado , Be Free.wav

Peak level 97.6 %
Track quality 100.0 %
Test CRC BD2059E0
Copy CRC BD2059E0
Accurately ripped (confidence 1) [B1F0F142]
Copy OK

Track 8

Filename Mix by Suzy Solar - The Perfect Trance - 08. DJ Fog , Sweet Sugar (Original Mix).wav

Peak level 97.6 %
Track quality 100.0 %
Test CRC 118D9FF8
Copy CRC 118D9FF8
Accurately ripped (confidence 1) [73918096]
Copy OK

Track 9

Filename Mix by Suzy Solar - The Perfect Trance - 09. Pulsedriver V , I Dominate You (Gary D. & Dr. Z. Remix).wav

Peak level 97.6 %
Track quality 100.0 %
Test CRC FDB58FDF
Copy CRC FDB58FDF
Accurately ripped (confidence 1) [1AD3AFA9]
Copy OK

Track 10

Filename Mix by Suzy Solar - The Perfect Trance - 10. Astral Inc. , Remember (Essential Mix).wav

Peak level 97.6 %
Track quality 100.0 %
Test CRC 911BA027
Copy CRC 911BA027
Accurately ripped (confidence 1) [0FB46939]
Copy OK

Track 11

Filename Mix by Suzy Solar - The Perfect Trance - 11. Lex'N'Frank , A World Of Love (12 Mix).wav

Peak level 97.6 %
Track quality 99.9 %
Test CRC 16E08706
Copy CRC 16E08706
Accurately ripped (confidence 1) [2B6CAE14]
Copy OK

Track 12

Filename C:\Documents and Settings\Michelle\My Documents\Mix by Suzy Solar - The Perfect Trance - 12. DJ Julio , The Concept (U.F.O. Remix).wav

Peak level 97.6 %
Track quality 100.0 %
Test CRC C50458A1
Copy CRC C50458A1
Accurately ripped (confidence 1) [55D4391E]
Copy OK

Track 13

Filename Mix by Suzy Solar - The Perfect Trance - 13. Loop Control , Exceptionally Beautiful.wav

Peak level 97.6 %
Track quality 100.0 %
Test CRC 5DCC3B8D
Copy CRC 5DCC3B8D
Accurately ripped (confidence 1) [A0285926]
Copy OK


All tracks accurately ripped

No errors occurred

End of status report

related torrents

Torrent name

health leech seeds Size
 


comments (0)

Main Menu