Comedy

Kung Fu Chefs(2009)[DivX][SUBs Eng+Gr]Omifast Greek

  • Download 5x Faster
  • Download torrent
  • Direct Download
  • Rate this torrent +  |  -
Kung Fu Chefs(2009)[DivX][SUBs Eng+Gr]Omifast Greek

Free and Direct Download with Usenet.nl 300GB+ free


Torrent info

Name:Kung Fu Chefs(2009)[DivX][SUBs Eng+Gr]Omifast Greek

Total Size: 733.31 MB

Magnet: Magnet Link

Seeds: 2

Leechers: 0

Stream: Watch Online @ Movie4u

Last Updated: 2015-09-10 11:18:06 (Update Now)

Torrent added: 2009-08-31 10:37:16





Torrent Files List


Info Documents (Size: 733.31 MB) (Files: 52)

 Info Documents

  English Info.rtf

0.45 KB

  Greek - Divx7 video.doc

1.26 KB

  Greek Info.doc

1.89 KB

  Media Info.txt

2.95 KB

 Sample + Trailer

  Kung Fu Chefs - Sample.divx

17.32 MB

  Kung Fu Chefs - Trailer.mp4

10.33 MB

 Snapshots

  Kung Fu Chefs_1.jpg

16.23 KB

  Kung Fu Chefs_10.jpg

49.94 KB

  Kung Fu Chefs_11.jpg

62.96 KB

  Kung Fu Chefs_12.jpg

48.58 KB

  Kung Fu Chefs_13.jpg

46.69 KB

  Kung Fu Chefs_14.jpg

42.42 KB

  Kung Fu Chefs_15.jpg

44.98 KB

  Kung Fu Chefs_16.jpg

48.56 KB

  Kung Fu Chefs_17.jpg

48.19 KB

  Kung Fu Chefs_18.jpg

43.61 KB

  Kung Fu Chefs_19.jpg

55.70 KB

  Kung Fu Chefs_2.jpg

42.28 KB

  Kung Fu Chefs_20.jpg

50.76 KB

  Kung Fu Chefs_21.jpg

61.16 KB

  Kung Fu Chefs_22.jpg

41.44 KB

  Kung Fu Chefs_23.jpg

47.55 KB

  Kung Fu Chefs_24.jpg

78.48 KB

  Kung Fu Chefs_25.jpg

67.94 KB

  Kung Fu Chefs_26.jpg

63.43 KB

  Kung Fu Chefs_27.jpg

53.38 KB

  Kung Fu Chefs_28.jpg

70.20 KB

  Kung Fu Chefs_29.jpg

42.55 KB

  Kung Fu Chefs_3.jpg

79.47 KB

  Kung Fu Chefs_30.jpg

55.71 KB

  Kung Fu Chefs_31.jpg

22.35 KB

  Kung Fu Chefs_32.jpg

46.55 KB

  Kung Fu Chefs_33.jpg

49.43 KB

  Kung Fu Chefs_34.jpg

49.29 KB

  Kung Fu Chefs_35.jpg

48.74 KB

  Kung Fu Chefs_36.jpg

65.14 KB

  Kung Fu Chefs_37.jpg

43.51 KB

  Kung Fu Chefs_38.jpg

61.16 KB

  Kung Fu Chefs_39.jpg

68.61 KB

  Kung Fu Chefs_4.jpg

50.04 KB

  Kung Fu Chefs_40.jpg

60.46 KB

  Kung Fu Chefs_41.jpg

47.85 KB

  Kung Fu Chefs_42.jpg

50.28 KB

  Kung Fu Chefs_43.jpg

39.25 KB

  Kung Fu Chefs_44.jpg

59.36 KB

  Kung Fu Chefs_45.jpg

41.13 KB

  Kung Fu Chefs_5.jpg

60.74 KB

  Kung Fu Chefs_6.jpg

72.68 KB

  Kung Fu Chefs_7.jpg

56.94 KB

  Kung Fu Chefs_8.jpg

28.84 KB

  Kung Fu Chefs_9.jpg

60.58 KB

 Kung Fu Chefs - The Movie.divx

703.36 MB
 

tracker

leech seeds
 

Torrent description

Optional English and Greek Subtitles

Movie Trailer, Sample, Snapsots, English and Greek Info.txt Included

---------------------------------------------------------------------

Gong fu chu shen aka Kung Fu Chefs (2009) - DivX7
http://www.imdb.com/title/tt1372692/

Ousted chef Wong Bing-Yi is determined to help Shen Qing at her restaurant "Four Seas". He trains a young chef, Lung Kin-Yat to compete against Chef Tin, the head chef at "Imperial Palace", for the title of "Top Chef". Written by Christopher C.

Starring: Cherrie Ying, Ai Kago, Siu-Wong Fan, Barbie Hsu, Sammo Hung Kam-Bo

------------------------------------------------------------------------


Direct Download, Photo, Trailer, and Full Synopsis in Greek and English:
www.omifast-mainmovies.blogspot.com

------------------------------------------------------------------------

General

Format : DivX
Format/Info : Hack of AVI
File size : 703 MiB
Duration : 1h 30mn
Overall bit rate : 1 086 Kbps

Video
ID : 0
Format : MPEG-4 Visual
Format profile : [email protected]
Format settings, BVOP : Yes
Format settings, QPel : No
Format settings, GMC : No warppoints
Format settings, Matrix : Custom
Codec ID : XVID
Codec ID/Hint : XviD
Duration : 1h 30mn
Bit rate : 950 Kbps
Width : 592 pixels
Height : 336 pixels
Display aspect ratio : 16:9
Frame rate : 25.000 fps
Resolution : 24 bits
Colorimetry : 4:2:0
Scan type : Progressive
Bits/(Pixel*Frame) : 0.191
Stream size : 615 MiB (87%)
Title : Video
Writing library : XviD 1.2.1 (UTC 2008-12-04)

Audio
ID : 1
Format : MPEG Audio
Format version : Version 1
Format profile : Layer 3
Codec ID : 55
Codec ID/Hint : MP3
Duration : 1h 30mn
Bit rate mode : Variable
Bit rate : 118 Kbps
Nominal bit rate : 128 Kbps
Channel(s) : 2 channels
Sampling rate : 48.0 KHz
Resolution : 16 bits
Stream size : 76.3 MiB (11%)
Alignment : Aligned on interleaves
Interleave, duration : 24 ms (0.60 video frame)
Interleave, preload duration : 534 ms
Title : Audio
Writing library : LAME3.98r
Encoding settings : -m j -V 4 -q 2 -lowpass 17 --abr 128

Text #1
Format : DivX Subtitle
Codec ID : DXSB
Codec ID/Info : Subtitle in AVI from DivX networks
Width : 720 pixels
Height : 576 pixels
Resolution : 4 bits
Stream size : 1.63 MiB (0%)
Title : Subtitle - el;02

Text #2
Format : DivX Subtitle
Codec ID : DXSB
Codec ID/Info : Subtitle in AVI from DivX networks
Width : 720 pixels
Height : 576 pixels
Resolution : 4 bits
Stream size : 1.69 MiB (0%)
Title : Subtitle - en;02


!

related torrents

Torrent name

health leech seeds Size
 

comments (0)

Main Menu