Comedy

Kids in the Hall Brain Candy[1996]DVDrip dudeman316

  • Download 5x Faster
  • Download torrent
  • Direct Download
  • Rate this torrent +  |  -
Kids in the Hall Brain Candy[1996]DVDrip dudeman316

Anonymous and Free Direct Download 300GB+


Torrent info

Name:Kids in the Hall Brain Candy[1996]DVDrip dudeman316

Total Size: 1.47 GB

Magnet: Magnet Link

Seeds: 0

Leechers: 0

Stream: Watch Online @ Movie4u

Last Updated: 2017-05-09 04:22:03 (Update Now)

Torrent added: 2009-08-31 10:21:32



VPN For Torrents

Torrent Files List


Kids In The Hall Brain Candy.jpg (Size: 1.47 GB) (Files: 4)

 Kids In The Hall Brain Candy.jpg

82.96 KB

 Kids in the Hall Brain Candy.mkv

1.47 GB

 Kids In The Hall Brain Candy.srt

67.87 KB

 Kids.in.the.Hall.Brain.Candy[1996]DVDrip.dudeman316.nfo

2.36 KB
 

tracker

leech seeds
 

Torrent description

Complete name : Kids in the Hall Brain Candy.mkv
Format : Matroska
File size : 1.47 GiB
Duration : 1h 28mn
Overall bit rate : 2 376 Kbps
Writing application : HandBrake 0.9.3

Video
ID : 1
Format : AVC
Format/Info : Advanced Video Codec
Format profile : [email protected]
Format settings, CABAC : Yes
Format settings, ReFrames : 2 frames
Muxing mode : Container [email protected]
Codec ID : V_MPEG4/ISO/AVC
Duration : 1h 28mn
Bit rate : 1 881 Kbps
Nominal bit rate : 1 923 Kbps
Width : 718 pixels
Height : 480 pixels
Display aspect ratio : 16/9
Frame rate : 23.976 fps
Resolution : 24 bits
Colorimetry : 4:2:0
Scan type : Progressive
Bits/(Pixel*Frame) : 0.228
Stream size : 1.16 GiB (79%)
Writing library : x264 core 65

Audio
ID : 2
Format : AC-3
Format/Info : Audio Coding 3
Codec ID : A_AC3
Duration : 1h 28mn
Bit rate mode : Constant
Bit rate : 448 Kbps
Channel(s) : 6 channels
Channel positions : Front: L C R, Surround: L R, LFE
Sampling rate : 48.0 KHz
Stream size : 283 MiB (19%)
Language : English

related torrents

Torrent name

health leech seeds Size
 


comments (0)

Main Menu