Comedy

Josie And The Pussycats 2001 {DvDRiP Xvid} [1337x][blackjesus]

  • Download 5x Faster
  • Download torrent
  • Direct Download
  • Rate this torrent +  |  -
Josie And The Pussycats 2001 {DvDRiP Xvid} [1337x][blackjesus]

Free and Direct Download with Usenet.nl 300GB+ free


Torrent info

Name:Josie And The Pussycats 2001 {DvDRiP Xvid} [1337x][blackjesus]

Total Size: 700.42 MB

Magnet: Magnet Link

Seeds: 1

Leechers: 1

Stream: Watch Online @ Movie4u

Last Updated: 2016-08-04 04:06:20 (Update Now)

Torrent added: 2009-08-31 09:58:14





Torrent Files List


Josie and the pussycats.avi (Size: 700.42 MB) (Files: 5)

 Josie and the pussycats.avi

700.36 MB

 Josie and the pussycats.jpg

53.13 KB

 INFO.txt

3.23 KB

 BlAcKjEsUs.txt

0.30 KB

 1337x.org.txt

0.02 KB
 

tracker

leech seeds
 

Torrent description

Josie and the Pussycats (2001)






http://www.youtube.com/watch?v=XvVhTHJWFr0
^^Trailer^^

http://www.imdb.com/title/tt0236348/
^^IMDB^^


Release Date: 24 August 2001 (UK)
Genre: Comedy | Music
Tagline: here kitty, kitty, kitty...
Audio: ENGLISH

For years, the record industries have inserted subliminal messages into music so that they can turn teenagers into braindead zombies who do nothing but buy, buy, buy. And whenever the musician or band finds out the truth, the record company silences them to keep the truth from coming out. When the hot boy band DuJour discovers this, their manager, Wyatt Frame, under his evil, corrupt boss, Fiona, has the plane they are flying in crashed and him looking for a new band to use for their evil schemes. Enter Josie, the ditzy Melody, and the tough Valerie, from Josie and the Pussycats, a small band who wants to make it to the big top. When they are discovered by Wyatt, they give in and become big rock stars. But will they find out that they are just pawns for the record industry or will fame take them over


Video
Format : MPEG-4 Visual
Format profile : Streaming [email protected]
Format settings, BVOP : Yes
Format settings, QPel : No
Format settings, GMC : No warppoints
Format settings, Matrix : Default (H.263)
Muxing mode : Packed bitstream
Codec ID : XVID
Codec ID/Hint : XviD
Duration : 1h 34mn
Bit rate : 915 Kbps
Width : 640 pixels
Height : 352 pixels
Display aspect ratio : 16/9
Frame rate : 25.000 fps
Resolution : 24 bits
Colorimetry : 4:2:0
Scan type : Progressive
Bits/(Pixel*Frame) : 0.163
Stream size : 619 MiB (88%)
Writing library : XviD 1.2.1 (UTC 2008-12-04)

Audio
Format : MPEG Audio
Format version : Version 1
Format profile : Layer 3
Codec ID : 55
Codec ID/Hint : MP3
Duration : 1h 34mn
Bit rate mode : Variable
Bit rate : 108 Kbps
Channel(s) : 2 channels
Sampling rate : 48.0 KHz
Resolution : 16 bits
Stream size : 73.1 MiB (10%)
Alignment : Aligned on interleaves
Interleave, duration : 24 ms (0.60 video frame)
Interleave, preload duration : 170 ms


related torrents

Torrent name

health leech seeds Size

Josie and the pussycats

0 0 1.24 GB 0
 

comments (0)

Main Menu