Comedy

Inside Im Dancing (2004)(James McAvoy)[DvdRip Divx English]

  • Download 5x Faster
  • Download torrent
  • Direct Download
  • Rate this torrent +  |  -

Torrent info

Name:Inside Im Dancing (2004)(James McAvoy)[DvdRip Divx English]

Total Size: 1.09 GB

Magnet: Magnet Link

Seeds: 2

Leechers: 3

Stream: Watch Online @ Movie4u

Last Updated: 2010-11-17 07:19:43 (Update Now)

Torrent added: 2009-08-31 09:21:43



VPN For Torrents

Torrent Files List


IID.divx (Size: 1.09 GB) (Files: 2)

 IID.divx

1.09 GB

 Torrent downloaded from Demonoid.com.txt

0.05 KB
 

Announce URL: http://inferno.demonoid.com:3417/announce

Torrent description

Inside Im Dancing - (2004)(James McAvoy)[DvdRip-Divx-English]







Staring

Steven Robertson
Alan King
Brenda Fricker
Ruth McCabe
James McAvoy
Anna Healy
Tom Hickey
Sarah Jane Drummey
Rachel Hanna
Emmet Kirwan
Romola Garai
Pat Shortt
Stanley Townsend
Derbhle Crotty
Donal Toolan.

Format : DivX
Format/Info : Hack of AVI
File size : 1.09 GiB
Duration : 1h 39mn
Overall bit rate : 1561 Kbps

Video
ID : 0
Format : MPEG-4 Visual
Format settings, BVOP : Yes
Format settings, QPel : No
Format settings, GMC : No warppoints
Format settings, Matrix : Default (H.263)
Muxing mode : Packed bitstream
Codec ID : DX50
Codec ID/Hint : DivX 5
Duration : 1h 39mn
Bit rate : 1 100 Kbps
Width : 688 pixels
Height : 384 pixels
Display aspect ratio : 16/9
Frame rate : 25.000 fps
Resolution : 24 bits
Colorimetry : 4:2:0
Scan type : Progressive
Bits/(Pixel*Frame) : 0.167
Stream size : 786 MiB (71%)
Title : Video
Writing library : DivX 6.8.2 (UTC 2008-05-17)

Audio
ID : 1
Format : AC-3
Format/Info : Audio Coding 3
Codec ID : 2000
Duration : 1h 39mn
Bit rate mode : Constant
Bit rate : 448 Kbps
Channel(s) : 6 channels
Channel positions : Front: L C R, Surround: L R, LFE
Sampling rate : 48.0 KHz
Stream size : 320 MiB (29%)
Alignment : Split accross interleaves
Interleave, duration : 40 ms (1.00 video frame)
Interleave, preload duration : 500 ms
Title : Audio

Text = English, On / Off
Format : DivX Subtitle
Codec ID : DXSB
Codec ID/Info : Subtitle in AVI from DivX networks
Width : 640 pixels
Height : 480 pixels
Resolution : 4 bits
Stream size : 1.84 MiB (0%)
Title : Subtitle

IMDB Rating =
7.8/10

Plot

In Dublin, the crippled rebel Rory O'Shea moves to the Carrigmore Residential Home for the Disabled, affecting the lives of the residents. Roy is able to understand the unintelligible speech of Michael Connolly, who was left in the shelter by his prominent father many years ago due to his cerebral palsy, and they become close friends. Rory convinces Michael to move from Carrigmore to an apartment in Dublin, and they hire the gorgeous Siobhan to assist them. Living together with Rory, Michael faces a new world, finding friendship, love and freedom and learning to survive by his own.

Review From IMDB

This film was amazing, it was extremely funny and moving. Damien O'Donnell and Jeffrey Caine have put together a great movie which will appeal to all ages. James McAvoy and Steven Robertson made this film brilliant. Their acting was excellent, there was this real lifelike feeling between them, that made you really believe they were the characters they were acting out. Romola Garai is amazingly gorgeous and brilliant in her role. The story of these two physically challenged people and their carer is well put over, and you really start to grow to know and feel for the characters as the movie goes on, it was especially upsetting at the end. I would recommend this movie to anyone that loves a truly heart felt movie, warning to the more sensitive viewer make sure you have tissues you will need them.
Again amazing film!!

related torrents

Torrent name

health leech seeds Size
 


comments (0)

Main Menu