Comedy

In The Land Of Women 2007 BRRip XviD AC3 TSTeam torrent [ceasers palace info]

  • Download 5x Faster
  • Download torrent
  • Direct Download
  • Rate this torrent +  |  -

Torrent info

Name:In The Land Of Women 2007 BRRip XviD AC3 TSTeam torrent [ceasers palace info]

Total Size: 1.45 GB

Magnet: Magnet Link

Seeds: 0

Leechers: 0

Stream: Watch Online @ Movie4u

Last Updated: 0000-00-00 00:00:00 (Update Now)

Torrent added: 2009-08-31 09:17:56



VPN For Torrents

Torrent Files List


In.The.Land.Of.Women.2007.BRRip.XviD.AC3-TSTeam.nfo (Size: 1.45 GB) (Files: 33)

 In.The.Land.Of.Women.2007.BRRip.XviD.AC3-TSTeam.nfo

2.05 KB

 In.The.Land.Of.Women.2007.BRRip.XviD.AC3-TSTeam.part01.rar

47.68 MB

 In.The.Land.Of.Women.2007.BRRip.XviD.AC3-TSTeam.part02.rar

47.68 MB

 In.The.Land.Of.Women.2007.BRRip.XviD.AC3-TSTeam.part03.rar

47.68 MB

 In.The.Land.Of.Women.2007.BRRip.XviD.AC3-TSTeam.part04.rar

47.68 MB

 In.The.Land.Of.Women.2007.BRRip.XviD.AC3-TSTeam.part05.rar

47.68 MB

 In.The.Land.Of.Women.2007.BRRip.XviD.AC3-TSTeam.part06.rar

47.68 MB

 In.The.Land.Of.Women.2007.BRRip.XviD.AC3-TSTeam.part07.rar

47.68 MB

 In.The.Land.Of.Women.2007.BRRip.XviD.AC3-TSTeam.part08.rar

47.68 MB

 In.The.Land.Of.Women.2007.BRRip.XviD.AC3-TSTeam.part09.rar

47.68 MB

 In.The.Land.Of.Women.2007.BRRip.XviD.AC3-TSTeam.part10.rar

47.68 MB

 In.The.Land.Of.Women.2007.BRRip.XviD.AC3-TSTeam.part11.rar

47.68 MB

 In.The.Land.Of.Women.2007.BRRip.XviD.AC3-TSTeam.part12.rar

47.68 MB

 In.The.Land.Of.Women.2007.BRRip.XviD.AC3-TSTeam.part13.rar

47.68 MB

 In.The.Land.Of.Women.2007.BRRip.XviD.AC3-TSTeam.part14.rar

47.68 MB

 In.The.Land.Of.Women.2007.BRRip.XviD.AC3-TSTeam.part15.rar

47.68 MB

 In.The.Land.Of.Women.2007.BRRip.XviD.AC3-TSTeam.part16.rar

47.68 MB

 In.The.Land.Of.Women.2007.BRRip.XviD.AC3-TSTeam.part17.rar

47.68 MB

 In.The.Land.Of.Women.2007.BRRip.XviD.AC3-TSTeam.part18.rar

47.68 MB

 In.The.Land.Of.Women.2007.BRRip.XviD.AC3-TSTeam.part19.rar

47.68 MB

 In.The.Land.Of.Women.2007.BRRip.XviD.AC3-TSTeam.part20.rar

47.68 MB

 In.The.Land.Of.Women.2007.BRRip.XviD.AC3-TSTeam.part21.rar

47.68 MB

 In.The.Land.Of.Women.2007.BRRip.XviD.AC3-TSTeam.part22.rar

47.68 MB

 In.The.Land.Of.Women.2007.BRRip.XviD.AC3-TSTeam.part23.rar

47.68 MB

 In.The.Land.Of.Women.2007.BRRip.XviD.AC3-TSTeam.part24.rar

47.68 MB

 In.The.Land.Of.Women.2007.BRRip.XviD.AC3-TSTeam.part25.rar

47.68 MB

 In.The.Land.Of.Women.2007.BRRip.XviD.AC3-TSTeam.part26.rar

47.68 MB

 In.The.Land.Of.Women.2007.BRRip.XviD.AC3-TSTeam.part27.rar

47.68 MB

 In.The.Land.Of.Women.2007.BRRip.XviD.AC3-TSTeam.part28.rar

47.68 MB

 In.The.Land.Of.Women.2007.BRRip.XviD.AC3-TSTeam.part29.rar

47.68 MB

 In.The.Land.Of.Women.2007.BRRip.XviD.AC3-TSTeam.part30.rar

47.68 MB

 In.The.Land.Of.Women.2007.BRRip.XviD.AC3-TSTeam.part31.rar

47.68 MB

 In.The.Land.Of.Women.2007.BRRip.XviD.AC3-TSTeam.part32.rar

9.90 MB
 

Announce URL: http://ceasers-palace.info/announce.php

Torrent description

Format : AVI
Format/Info : Audio Video Interleave
Format profile : OpenDML
File size : 1.45 GiB
Duration : 1h 38mn
Overall bit rate : 2 121 Kbps
Writing application : AVI-Mux GUI 1.17.7, Aug 8 2006 20:59:17

Video
ID : 0
Format : MPEG-4 Visual
Format profile : Streaming [email protected]
Format settings, BVOP : Yes
Format settings, QPel : No
Format settings, GMC : No warppoints
Format settings, Matrix : Default (MPEG)
Codec ID : XVID
Codec ID/Hint : XviD
Duration : 1h 38mn
Bit rate : 1 668 Kbps
Width : 720 pixels
Height : 304 pixels
Display aspect ratio : 2.35
Frame rate : 23.976 fps
Resolution : 24 bits
Colorimetry : 4:2:0
Scan type : Progressive
Bits/(Pixel*Frame) : 0.318
Stream size : 1.14 GiB (79%)
Writing library : XviD 1.2.1 (UTC 2008-12-04)

Audio
ID : 1
Format : AC-3
Format/Info : Audio Coding 3
Codec ID : 2000
Duration : 1h 37mn
Bit rate mode : Constant
Bit rate : 448 Kbps
Channel(s) : 6 channels
Channel positions : Front: L C R, Surround: L R, LFE
Sampling rate : 48.0 KHz
Stream size : 314 MiB (21%)
Alignment : Aligned on interleaves
Interleave, duration : 64 ms (1.54 video frames)
Interleave, preload duration : 192 ms
Title : In.The.Land.Of.Women.2007.BluRay

related torrents

Torrent name

health leech seeds Size
 


comments (0)

Main Menu