Comedy

I Love You Man 2009 DVDRIP XviD X47

  • Download 5x Faster
  • Download torrent
  • Direct Download
  • Rate this torrent +  |  -
I Love You Man 2009 DVDRIP XviD X47

Free and Direct Download with Usenet.nl 300GB+ free


Torrent info

Name:I Love You Man 2009 DVDRIP XviD X47

Total Size: 723.84 MB

Magnet: Magnet Link

Seeds: 0

Leechers: 0

Stream: Watch Online @ Movie4u

Last Updated: 2015-10-19 18:59:37 (Update Now)

Torrent added: 2009-08-31 08:44:03





Torrent Files List


ILYM-ZEKTORM.avi (Size: 723.84 MB) (Files: 5)

 ILYM-ZEKTORM.avi

701.13 MB

 READ.hlp

11.27 KB

 Subs

  ILYM-ZEKTORM.idx

255.89 KB

  ILYM-ZEKTORM.sub

22.45 MB

 Torrent downloaded from Demonoid.com.txt

0.05 KB
 

tracker

leech seeds
 

Torrent description

Seed, Enjoy.

Regards - X47
Title : I Love You, Man
Year : 2009
Genre : Comedy | Romance
iMDB URL : http://www.imdb.com/title/tt1155056/
Awards : 1 nomination

Complete name : ILYM-ZEKTORM.avi
Format : AVI
File size : 701 MiB
Duration : 1h 44mn
Overall bit rate : 936 Kbps
Subtitles : English, Spanish, French (Format: VobSub)
Source : DVD NTSC

Video
Format : MPEG-4 Visual
Format profile : Streaming [email protected]
Codec ID : XVID
Codec ID/Hint : XviD
Duration : 1h 44mn
Bit rate : 821 Kbps
Width : 720 pixels
Height : 416 pixels
Display aspect ratio : 16/9
Frame rate : 23.976 fps
Resolution : 24 bits
Colorimetry : 4:2:0
Scan type : Progressive
Bits/(Pixel*Frame) : 0.114
Stream size : 615 MiB (88%)
Writing library : XviD

Audio
Format : MPEG Audio
Format version : Version 1
Format profile : Layer 3
Codec ID : 55
Codec ID/Hint : MP3
Duration : 1h 44mn
Bit rate mode : Variable
Bit rate : 102 Kbps
Minimum bit rate : 128 Kbps
Channel(s) : 2 channels
Sampling rate : 48.0 KHz
Resolution : 16 bits
Stream size : 76.1 MiB (11%)
Writing library : LAME3.98r
Encoding settings : ABR

related torrents

Torrent name

health leech seeds Size
 

comments (0)

Main Menu