Comedy

How to Lose Friends & Alienate People 2008 DVDRIP ZEKTORM

  • Download 5x Faster
  • Download torrent
  • Direct Download
  • Rate this torrent +  |  -

Torrent info

Name:How to Lose Friends & Alienate People 2008 DVDRIP ZEKTORM

Total Size: 717.86 MB

Magnet: Magnet Link

Seeds: 0

Leechers: 0

Stream: Watch Full Movie @ Movie4u

Last Updated: 0000-00-00 00:00:00 (Update Now)

Torrent added: 2009-08-31 08:34:49



VPN For Torrents

Torrent Files List


How.to.Lose.Friends.&.Alienate.People.2008.DVDRIP-ZEKTORM.mp4 (Size: 717.86 MB) (Files: 4)

 How.to.Lose.Friends.&.Alienate.People.2008.DVDRIP-ZEKTORM.mp4

700.13 MB

 READ.hlp

12.79 KB

 Subs

  How.to.Lose.Friends.&.Alienate.People.2008.DVDRIP-ZEKTORM.idx

221.58 KB

  How.to.Lose.Friends.&.Alienate.People.2008.DVDRIP-ZEKTORM.sub

17.51 MB
 

Announce URL: http://eztv.tracker.thepiratebay.org:80/announce

Torrent description

Title : How to Lose Friends & Alienate People
Year : 2008
Genre : Comedy | Romance
iMDB Rate : User Rating: 7.0/10 10,019 votes
iMDB URL : http://www.imdb.com/title/tt0455538/

Complete name : How.to.Lose.Friends.&.Alienate.People.2008.DVDRIP-ZEKTORM.mp4
Format : MPEG-4
Format profile : Base Media
Codec ID : isom
File size : 700 MiB
Duration : 1h 49mn
Overall bit rate : 892 Kbps
Subtitles : English, Spanish (Format: VobSub)
Source : DVD NTSC
Encoded date : UTC 2009-01-28 21:21:42

Video
Format : AVC
Format/Info : Advanced Video Codec
Format profile : [email protected]
Format settings, CABAC : Yes
Format settings, ReFrames : 10 frames
Codec ID : avc1
Codec ID/Info : Advanced Video Coding
Duration : 1h 49mn
Bit rate mode : Variable
Bit rate : 807 Kbps
Maximum bit rate : 5202 Kbps
Width : 720 pixels
Height : 464 pixels
Display aspect ratio : 1.881
Frame rate mode : Constant
Frame rate : 23.976 fps
Resolution : 24 bits
Colorimetry : 4:2:0
Scan type : Progressive
Bits/(Pixel*Frame) : 0.101
Stream size : 633 MiB (90%)
Title : Video
Writing library : x264 core 60 r900 a9af942

Audio
Format : AAC
Format/Info : Advanced Audio Codec
Format version : Version 4
Format profile : LC
Format settings, SBR : Yes
Format settings, PS : No
Codec ID : 40
Duration : 1h 49mn
Bit rate mode : Variable
Bit rate : 81.9 Kbps
Maximum bit rate : 108 Kbps
Channel(s) : 2 channels
Channel positions : L R
Sampling rate : 48.0 KHz
Resolution : 16 bits
Stream size : 64.3 MiB (9%)
Title : English
Language : English

Notes : Convert to DVD with Nero

related torrents

Torrent name

health leech seeds Size
 


comments (0)

Main Menu

 

script data-cfasync="false" src="//d2ghscazvn398x.cloudfront.net/?cshgd=690275">