Comedy

Hollywood Homicide[2003]DVDrip[Eng]AC3[5 1] Atlas47

  • Download 5x Faster
  • Download torrent
  • Direct Download
  • Rate this torrent +  |  -
Hollywood Homicide[2003]DVDrip[Eng]AC3[5 1] Atlas47

Free and Direct Download with Usenet 300GB+ free


Torrent info

Name:Hollywood Homicide[2003]DVDrip[Eng]AC3[5 1] Atlas47

Total Size: 1.37 GB

Magnet: Magnet Link

Seeds: 0

Leechers: 1

Stream: Watch Online @ Movie4u

Last Updated: 2016-12-15 08:29:01 (Update Now)

Torrent added: 2009-08-31 08:11:53




Torrent Files List


Covers (Size: 1.37 GB) (Files: 7)

 Covers

  hollywood homicide.jpg

1.64 MB

 Hollywood Homicide.avi

1.37 GB

 Hollywood Homicide.idx

65.94 KB

 Hollywood Homicide.nfo

10.30 KB

 Hollywood Homicide.sub

5.30 MB

 ResourceRG_NFO_please_read.txt

20.91 KB

 Torrent_downloaded_from_Demonoid.com.txt

0.05 KB
 

tracker

leech seeds
 

Torrent description


±±±±±±±±±±±±±±±±±±±±±±±±±±±±±±±±±±±±±±±±±±±±±±±±±±±±±±±±±±±±±±±±±±±±±±±±±±±±±±±±
± ±
± INFO: ±
± ±
± General ±
± Complete name : Hollywood Homicide ±
± Genre : Action / Comedy / Crime / Thriller ±
± Format : AVI ±
± Format/Info : Audio Video Interleave ±
± File size : 1.37 GiB ±
± Duration : 1h 51mn ±
± Overall bit rate : 1 759 Kbps ±
± Writing application : VirtualDubMod 1.5.4.1 (build 2178/release)±
± Writing library : VirtualDubMod build 2178/release ±
± ±
± Video ±
± Format : MPEG-4 Visual ±
± Format settings, BVOP : Yes ±
± Format settings, QPel : No ±
± Format settings, GMC : No warppoints ±
± Format settings, Matrix : Default ±
± Codec ID : DX50 ±
± Codec ID/Hint : DivX 5 ±
± Duration : 1h 51mn ±
± Bit rate : 1 304 Kbps ±
± Width : 672 pixels ±
± Height : 288 pixels ±
± Display aspect ratio : 2.35 ±
± Frame rate : 25.000 fps ±
± Resolution : 24 bits ±
± Colorimetry : 4:2:0 ±
± Scan type : Progressive ±
± Bits/(Pixel*Frame) : 0.269 ±
± Stream size : 1.01 GiB (74%) ±
± Writing library : DivX 2816 ±
± ±
± Audio ±
± Format : AC-3 ±
± Format/Info : Audio Coding 3 ±
± Codec ID : 2000 ±
± Duration : 1h 51mn ±
± Bit rate mode : Constant ±
± Bit rate : 448 Kbps ±
± Channel(s) : 6 channels ±
± Channel positions : Front: L C R, Surround: L R, LFE ±
± Sampling rate : 48.0 KHz ±
± Stream size : 356 MiB (25%) ±
± Alignment : Split accross interleaves ±
± Interleave, duration : 80 ms (2.00 video frames) ±
± Interleave, preload duration : 500 ms ±
± Language : English ±
± Subtitles : English ±
± ±
± IMDb Rating : 5.2/10 ±
± IMDb URL : http://www.imdb.com/title/tt0329717/ ±
± ±
±°°°°°°°°°°°°°°°°°°°°°°°°°°°°°°°°°°°°°°°°°°°°°°°°°°°°°°°°°°°°°°°°°°°°°°°°°°°°°°±
± ±
± In Hollywood, no one is who they really want to be. Veteran police detective ±
± Joe Gavilan and his rookie partner K.C. Calden are no exception. Between ±
± Joe's struggling real estate business and K.C.'s fledgling acting career and ±
± yoga instruction, they've got a major murder case to solve. With both ±
± Internal Affairs and their main suspect on their tails, Joe and K.C. have to ±
± infiltrate the dangerous world of the hip-hop recording industry. Juggling ±
± two careers proves to be a comical adventure, with Joe and K.C. desperate to ±
± stay alive long enough to catch their big break. ±
± ±
± ±
± ±
±°°°°°°°°°°°°°°°°°°°°°°°°°°°°°°°°°°°°°°°°°°°°°°°°°°°°°°°°°°°°°°°°°°°°°°°°°°°°°°±
± ±
± CAST: ±
± ±
± Harrison Ford..............Sgt. Joe Gavilan ±
± Josh Hartnett..............Det. K.C. Calden ±
± Lena Olin..................Ruby ±
± Bruce Greenwood............Lt. Bennie Macko ±
± Isaiah Washington..........Antoine Sartain ±
± Lotita Davidovich..........Cleo Ricard ±
± Keith David................Leon ±
± ±
±°°°°°°°°°°°°°°°°°°°°°°°°°°°°°°°°°°°°°°°°°°°°°°°°°°°°°°°°°°°°°°°°°°°°°°°°°°°°°°±
± ±
± Please remember to seed ±
± ±
± Seeding is good for the soul ±
± ±
±±±±±±±±±±±±±±±±±±±±±±±±±±±±±±±±±±±±±±±±±±±±±±±±±±±±±±±±±±±±±±±±±±±±±±±±±±±±±±±±

related torrents

Torrent name

health leech seeds Size
 

comments (0)

Main Menu