Comedy

Hitch[2005]DVDrip[Eng]AC3[5 1] Atlas47

  • Download 5x Faster
  • Download torrent
  • Direct Download
  • Rate this torrent +  |  -
Hitch[2005]DVDrip[Eng]AC3[5 1] Atlas47

Free and Direct Download with Usenet 300GB+ free


Torrent info

Name:Hitch[2005]DVDrip[Eng]AC3[5 1] Atlas47

Total Size: 1.37 GB

Magnet: Magnet Link

Seeds: 0

Leechers: 0

Stream: Watch Online @ Movie4u

Last Updated: 2010-12-06 22:47:19 (Update Now)

Torrent added: 2009-08-31 08:10:12




Torrent Files List


Covers (Size: 1.37 GB) (Files: 6)

 Covers

  Hitch cover.jpg

416.28 KB

 Hitch.avi

1.37 GB

 Hitch.nfo

10.22 KB

 Hitch.srt

114.45 KB

 ResourceRG_NFO_please_read.txt

20.91 KB

 Torrent_downloaded_from_Demonoid.com.txt

0.05 KB
 

Announce URL: http://tracker.thepiratebay.org:80/announce

Torrent description


±±±±±±±±±±±±±±±±±±±±±±±±±±±±±±±±±±±±±±±±±±±±±±±±±±±±±±±±±±±±±±±±±±±±±±±±±±±±±±±±
± ±
± INFO: ±
± ±
± General ±
± Complete name : Hitch ±
± Genre : Comedy / Romance ±
± Format : AVI ±
± Format/Info : Audio Video Interleave ±
± File size : 1.37 GiB ±
± Duration : 1h 53mn ±
± Overall bit rate : 1 727 Kbps ±
± Writing application : VirtualDubMod 1.5.4.1 (build 2178/release)±
± Writing library : VirtualDubMod build 2178/release ±
± ±
± Video ±
± Format : MPEG-4 Visual ±
± Format settings, BVOP : Yes ±
± Format settings, QPel : No ±
± Format settings, GMC : No warppoints ±
± Format settings, Matrix : Default ±
± Codec ID : DX50 ±
± Codec ID/Hint : DivX 5 ±
± Duration : 1h 53mn ±
± Bit rate : 1 272 Kbps ±
± Width : 704 pixels ±
± Height : 304 pixels ±
± Display aspect ratio : 2.35 ±
± Frame rate : 25.000 fps ±
± Resolution : 24 bits ±
± Colorimetry : 4:2:0 ±
± Scan type : Progressive ±
± Bits/(Pixel*Frame) : 0.238 ±
± Stream size : 1.01 GiB (74%) ±
± Writing library : DivX 2816 ±
± ±
± Audio ±
± Format : AC-3 ±
± Format/Info : Audio Coding 3 ±
± Codec ID : 2000 ±
± Duration : 1h 53mn ±
± Bit rate mode : Constant ±
± Bit rate : 448 Kbps ±
± Channel(s) : 6 channels ±
± Channel positions : Front: L C R, Surround: L R, LFE ±
± Sampling rate : 48.0 KHz ±
± Stream size : 363 MiB (26%) ±
± Alignment : Split accross interleaves ±
± Interleave, duration : 80 ms (2.00 video frames) ±
± Interleave, preload duration : 500 ms ±
± Language : English ±
± Subtitles : English ±
± ±
± IMDb Rating : 6.8/10 ±
± IMDb URL : http://www.imdb.com/title/tt0386588/ ±
± ±
±°°°°°°°°°°°°°°°°°°°°°°°°°°°°°°°°°°°°°°°°°°°°°°°°°°°°°°°°°°°°°°°°°°°°°°°°°°°°°°±
± ±
± Meet Hitch, New York City's greatest matchmaker. Love is his job and he'll ±
± get you the girl of your dreams in just three easy dates, guaranteed! And ±
± that's exactly what happens when Albert Brennaman wins the heart of gorgeous ±
± society heiress Allegra Cole. So when tabloid columnist Sara Melas decides ±
± to uncover the secret behind the tubby schlub's success, she's shocked to ±
± discover that Alex Hitchens, the charming young man she's been seeing, is ±
± the legendry date doctor himself. Exposed in a front-page scoop, it's now up ±
± to Alex to try and save Albert and Allegra's relationship as well as his own.±
± Which only goes to show that just when you think you've found true love, ±
± there's always a HITCH. ±
± ±
±°°°°°°°°°°°°°°°°°°°°°°°°°°°°°°°°°°°°°°°°°°°°°°°°°°°°°°°°°°°°°°°°°°°°°°°°°°°°°°±
± ±
± CAST: ±
± ±
± Will Smith.................Alex 'Hitch' Hitchens ±
± Eva Mandes.................Sara Melas ±
± Kevin James................Albert Brennaman ±
± Amber Valletta.............Allegra Cole ±
± Julie Ann Emery............Casey Sedgeick ±
± Adam Arkin.................Max ±
± Jeffrey Donovan............Vance Munson ±
± ±
±°°°°°°°°°°°°°°°°°°°°°°°°°°°°°°°°°°°°°°°°°°°°°°°°°°°°°°°°°°°°°°°°°°°°°°°°°°°°°°±
± ±
± Please remember to seed ±
± ±
± Seeding is good for the soul ±
± ±
±±±±±±±±±±±±±±±±±±±±±±±±±±±±±±±±±±±±±±±±±±±±±±±±±±±±±±±±±±±±±±±±±±±±±±±±±±±±±±±±

related torrents

Torrent name

health leech seeds Size
 

comments (0)

Main Menu