Comedy

Hedwig and the Angry Inch 2001 {DvDRiP Xvid} [1337x][blackjesus]

  • Download 5x Faster
  • Download torrent
  • Direct Download
  • Rate this torrent +  |  -
Hedwig and the Angry Inch 2001 {DvDRiP Xvid} [1337x][blackjesus]

Anonymous and Free Direct Download 300GB+


Torrent info

Name:Hedwig and the Angry Inch 2001 {DvDRiP Xvid} [1337x][blackjesus]

Total Size: 700.97 MB

Magnet: Magnet Link

Seeds: 0

Leechers: 0

Stream: Watch Online @ Movie4u

Last Updated: 2017-06-18 19:37:03 (Update Now)

Torrent added: 2009-08-31 08:00:07



VPN For Torrents

Torrent Files List


hedwig.avi (Size: 700.97 MB) (Files: 5)

 hedwig.avi

700.89 MB

 Hedwig.jpg

84.63 KB

 INFO.txt

2.97 KB

 BlAcKjEsUs.txt

0.30 KB

 1337x.org.txt

0.02 KB
 

tracker

leech seeds
 

Torrent description

Hedwig and the Angry Inch (2001)






http://www.youtube.com/watch?v=8tgy9ODhwNI
^^Trailer^^

http://www.imdb.com/title/tt0248845/
^^IMDB^^

Hedwig, born a boy named Hansel in East Berlin, fell in love with an American G.I. and underwent a sex-change operation in order to marry him and flee to the West. Unfortunately, nothing worked out quite as it was supposed to - years later, Hedwig is leading her rock band on a tour of the U.S., telling her life story through a series of concerts at Bilgewater Inn seafood restaurants. Her tour dates coincide with those of arena-rock star Tommy Gnosis, a wide-eyed boy who once loved Hedwig... but then left with all her songs. Written



Release Date: 27 July 2001 (Canada)
Genre: Comedy | Drama | Music
Tagline: An anatomically incorrect rock odyssey


Video

Format : MPEG-4 Visual
Format profile : Streaming [email protected]
Format settings, BVOP : Yes
Format settings, QPel : No
Format settings, GMC : No warppoints
Format settings, Matrix : Default (H.263)
Muxing mode : Packed bitstream
Codec ID : XVID
Codec ID/Hint : XviD
Duration : 1h 27mn
Bit rate : 995 Kbps
Width : 608 pixels
Height : 336 pixels
Display aspect ratio : 16/9
Frame rate : 25.000 fps
Resolution : 24 bits
Colorimetry : 4:2:0
Scan type : Progressive
Bits/(Pixel*Frame) : 0.195
Stream size : 625 MiB (89%)
Writing library : XviD 1.2.1 (UTC 2008-12-04)

Audio

Format : MPEG Audio
Format version : Version 1
Format profile : Layer 3
Codec ID : 55
Codec ID/Hint : MP3
Duration : 1h 27mn
Bit rate mode : Variable
Bit rate : 108 Kbps
Channel(s) : 2 channels
Sampling rate : 48.0 KHz
Resolution : 16 bits
Stream size : 68.0 MiB (10%)
Alignment : Aligned on interleaves
Interleave, duration : 24 ms (0.60 video frame)
Interleave, preload duration : 469 ms


related torrents

Torrent name

health leech seeds Size
 


comments (0)

Main Menu