Comedy

HD E05

  • Download 5x Faster
  • Download torrent
  • Direct Download
  • Rate this torrent +  |  -
HD E05

Free and Direct Download with Usenet.nl 300GB+ free


Torrent info

Name:HD E05

Total Size: 246.20 MB

Magnet: Magnet Link

Seeds: 0

Leechers: 0

Stream: Watch Online @ Movie4u

Last Updated: 2009-12-04 05:02:57 (Update Now)

Torrent added: 2009-08-31 07:57:33

Alternatives:HD E05 Torrents





Torrent Files List


05-Jedem sein Bett.avi (Size: 246.20 MB) (Files: 1)

 05-Jedem sein Bett.avi

246.20 MB
 

Announce URL: http://ghost-city.biz/announce.php

Torrent description

5 Jedem sein Bett (Nudge, Nudge, wink, wink)

Hey Dad ist eine,
291-tlg. austral. Sitcom von Gary Reilly und John Flanagan,
Regie: Sally Brady (Hey Dad!; 1987-1994).
Der Witwer Martin Kelly (Robert Hughes) ist Architekt und arbeitet zu Hause,
um bei seinen Kindern, sprich den Teenagern Simon
(Paul Smith; ab Folge 40: Christopher Mayer) und Debbie (Simone Buchanan)
und der kleinen Jenny (Sarah Monahan; ab Folge 268: Angela Keep), sein zu können.
Betty Wilson (Julie McGregor), eine entfernte Kusine, ist Martins Sekretärin.
Sie kann weder stenografieren noch tippen, meldet sich am Telefon mit "Martin Kelly,
Artichekt", ist langsam und naiv, aber liebenswert. Ebenfalls nicht der Allerhellste
ist Nudge (Christopher Truswell). Er ist Simons bester Freund und frisst permanent
den Kühlschrank der Kellys leer. Doch gelegentlich hat er einen lichten Moment.
Als die Kinder feststellen, dass ihr Vater eine größere Menge Geld angespart hat,
und rätseln, was er damit vorhat,
folgert Nudge blitzgescheit: "Bestimmt will er sich davon irgendetwas kaufen!"

Diese Daten stehen stellvertrettend für alle Folgen der ersten Staffel

Allgemein
Vollständiger Name : HD-E01?1-Die Kusine vom Lande.avi
Format : AVI
Format/Info : Audio Video Interleave
Dateigröße : 247 MiB
Duration : 22min
Gesamte Bitrate : 1 546 Kbps
Verwendetes Programm : VirtualDubMod 1.5.10.2 (build 2540/release)
verwendete Encoder-Bibliothek : VirtualDubMod build 2540/release

Video
Format : MPEG-4 Visual
Format profile : Streaming [email protected]
Format settings, BVOP : Ja
Format settings, QPel : Nein
Format settings, GMC : No warppoints
Format settings, Matrix : Custom
Codec ID : XVID
Codec ID/Hint : XviD
Duration : 22min
Bitrate : 1 408 Kbps
Breite : 576 Pixel
Höhe : 432 Pixel
Bildseitenverhältnis : 4/3
Bildwiederholungsrate : 25,000 FPS
Auflösung : 24 bits
Colorimetry : 4:2:0
Scan type : Progressive
Bits/(Pixel*Frame) : 0.226
Stream size : 225 MiB (91%)
verwendete Encoder-Bibliothek : XviD 1.1.2 (UTC 2006-11-01)

Audio
Format : MPEG Audio
Format version : Version 1
Format profile : Layer 3
Codec ID : 55
Codec ID/Hint : MP3
Duration : 22min
Bitraten-Modus : Constant
Bitrate : 128 Kbps
Kanäle : 2 Kanäle
Samplingrate : 44,1 KHz
Auflösung : 16 bits
Stream size : 20,5 MiB (8%)
Alignment : Split accross interleaves
Interleave, duration : 40 ms (1,00 video frame)
Interleave, preload duration : 500 ms

related torrents

Torrent name

health leech seeds Size
 

comments (0)

Main Menu