Comedy

GREMLINS 2 THE NEW BATCH[1990][DVDRIP][ENG] KIDZCORNER&J T R

  • Download 5x Faster
  • Download torrent
  • Direct Download
  • Rate this torrent +  |  -
GREMLINS 2 THE NEW BATCH[1990][DVDRIP][ENG] KIDZCORNER&J T R

Anonymous and Free Direct Download 300GB+


Torrent info

Name:GREMLINS 2 THE NEW BATCH[1990][DVDRIP][ENG] KIDZCORNER&J T R

Total Size: 700.09 MB

Magnet: Magnet Link

Seeds: 15

Leechers: 3

Stream: Watch Online @ Movie4u

Last Updated: 0000-00-00 00:00:00 (Update Now)

Torrent added: 2009-08-31 07:17:02



VPN For Torrents

Torrent Files List


[AllCDCovers]_gremlins_2_new_batch_1990_r2_retail_dvd-front.jpg (Size: 700.09 MB) (Files: 4)

 [AllCDCovers]_gremlins_2_new_batch_1990_r2_retail_dvd-front.jpg

1.59 MB

 grem2.avi

698.51 MB

 Torrent downloaded from Demonoid.com.txt

0.05 KB

 Tracked by moviesb4time.biz.txt

1.35 KB
 

Announce URL: http://inferno.demonoid.com:3407/announce

Torrent description

Here They Grow Again...

Billy (Zach Galligan) and his girlfriend Kate (Phoebe Cates) have moved to New York to work at an ultramodern skyscraper owned by a Donald Trump clone (a hilarious John Glover). Billy's furry little buddy, Gizmo the Mogwai, is captured by a mad scientist (Christopher Lee), who not only helps it multiply, but invests the nasty, scaly offspring with intelligence and the ability to talk - amongst many other imaginative abilities.

What follows is total anarchy, spoofing old movies, modern television, and the conveniences of postmodern technology.

General
Complete name : C:\Users\joker\Documents\GREMLINS 2-THE NEW BATCH[1990][DVDRIP][ENG]-KIDZCORNER&J.T.R\grem2.avi
Format : AVI
Format/Info : Audio Video Interleave
File size : 699 MiB
Duration : 1h 42mn
Overall bit rate : 957 Kbps
Writing application : FairUse Wizard - http://fairusewizard.com
Writing library : The best and REALLY easy backup tool

Video
Format : MPEG-4 Visual
Format profile : [email protected]
Format settings, BVOP : No
Format settings, QPel : No
Format settings, GMC : No warppoints
Format settings, Matrix : Default
Codec ID : XVID
Codec ID/Hint : XviD
Duration : 1h 42mn
Bit rate : 819 Kbps
Width : 688 pixels
Height : 384 pixels
Display aspect ratio : 16/9
Frame rate : 25.000 fps
Resolution : 24 bits
Colorimetry : 4:2:0
Scan type : Progressive
Bits/(Pixel*Frame) : 0.124
Stream size : 598 MiB (86%)
Writing library : XviD 1.2.0.dev47 (UTC 2006-11-01)

Audio
Format : MPEG Audio
Format version : Version 1
Format profile : Layer 3
Codec ID : 55
Codec ID/Hint : MP3
Duration : 1h 42mn
Bit rate mode : Constant
Bit rate : 128 Kbps
Minimum bit rate : 128 Kbps
Channel(s) : 2 channels
Sampling rate : 48.0 KHz
Resolution : 16 bits
Stream size : 93.4 MiB (13%)
Alignment : Aligned on interleaves
Interleave, duration : 40 ms (1.00 video frame)
Interleave, preload duration : 504 ms
Writing library : LAME3.97
Encoding settings : CBR

related torrents

Torrent name

health leech seeds Size
 


comments (0)

Main Menu