Comedy

Goin' South [1978][DVDRip][XviD][AC3[WLH]

  • Download 5x Faster
  • Download torrent
  • Direct Download
  • Rate this torrent +  |  -
Goin' South [1978][DVDRip][XviD][AC3[WLH]

Anonymous and free Direct Download 300GB+


Torrent info

Name:Goin' South [1978][DVDRip][XviD][AC3[WLH]

Total Size: 1.18 GB

Magnet: Magnet Link

Seeds: 0

Leechers: 0

Stream: Watch Online @ Movie4u

Last Updated: 2016-09-30 17:31:08 (Update Now)

Torrent added: 2009-08-31 07:05:03



VPN For Torrents

Torrent Files List


Thumbs & Pics (Size: 1.18 GB) (Files: 6)

 Thumbs & Pics

  DSRG.png

25.67 KB

  scan0001.jpg

2.69 MB

  Thumbnails.jpg

512.00 KB

 Goin' South [1978][DVDRip][XviD][AC3[WLH].avi

1.17 GB

 nfo.txt

1.47 KB

 Torrent_downloaded_from_Demonoid.com.txt

0.05 KB
 

tracker

leech seeds
 

Torrent description

*PLOT SUMMARY*
Jack Nicholson plays Henry moon, A third-rate outlaw,in this romantic comedy set in the 1860's. Moon is saved from hangingby the intervention of a lovely young woman who agrees to marry and take charge of him. Mary Steenburgen plays Julia Tate, the headstrong but genteel Southern virgin who weds moononly to help her work the gold mine she insists is on her property. Both Steenburgen and John Belushi made their debuts in this amusing western.

*Cast*
Jack Nicholson ... Henry Lloyd Moon
Mary Steenburgen ... Julia Tate / Moon
Christopher Lloyd ... Deputy Towfield
John Belushi ... Deputy Hector
Richard Bradford ... Sheriff Andrew Kyle
Danny DeVito ... Hog, Moon's Old Gang


Year : 1978
Format : AVI
Original source form : DVD
File size : 1.17 GiB
Duration : 1h 48mn
Genre : Comedy I Western
IMDB Rating : 6.2/10 1,963 votes
IMDB Link : http://www.imdb.com/title/tt0077621/

Video info :
Format : Xvid (2-pass) MPEG-4 Visual
Bit rate : 1,343 Kbps
Width : 704 pixels
Height : 400 pixels
Display aspect ratio : 16:9
Frame rate : 23.976 fps
Resolution : 24 bits
Bits/(Pixel*Frame) : 0.199
Stream size : 1.02 GiB (87%)


Audio info :
Format : AC-3
Codec ID: 2000
Bit rate mode : Constant
Bit rate : 192Kbps
Channel(s) : 2 Channels
Channel positions: Front: L R
Sampling rate : 48.0 KHz
Stream size :149 MiB (12%)
Alignment : Aligned on interleaves
Interleave duration : 32 MS(0.77 video frame)
Language : English



related torrents

Torrent name

health leech seeds Size

VA Goin South (2001)

0 0 107.93 MB 0

VA Goin' South [flac]

0 0 435.21 MB 0
 


comments (0)

Main Menu