Comedy

Go 1999 DVDRIP AVI XVID AC3 5 1 (Terpripken)

  • Download 5x Faster
  • Download torrent
  • Direct Download
  • Rate this torrent +  |  -
Go 1999 DVDRIP AVI XVID AC3 5 1 (Terpripken)

Anonymous and Free Direct Download


Torrent info

Name:Go 1999 DVDRIP AVI XVID AC3 5 1 (Terpripken)

Total Size: 976.15 MB

Magnet: Magnet Link

Seeds: 0

Leechers: 0

Stream: Watch Online @ Movie4u

Last Updated: 2010-09-22 10:13:09 (Update Now)

Torrent added: 2009-08-31 07:03:45



VPN For Torrents

Torrent Files List


Go---1999 DVDRIP AVI XVID AC3 5.1 (Terpripken).avi (Size: 976.15 MB) (Files: 1)

 Go---1999 DVDRIP AVI XVID AC3 5.1 (Terpripken).avi

976.15 MB
 

Announce URL: http://tpb.tracker.thepiratebay.org:80/announce

Torrent description

Told from three perspectives, a story of a bunch of young Californians trying to get some cash, do and deal some drugs, score money and sex in Las Vegas, and generally experience the rush of life. Written by Vladimir Zelevinsky {[email protected]}

'Go' is set mostly during one long Christmas Eve in the lives of a group of young adults on the events surrounding a drug deal in Los Angeles replayed three different times from three different views. In a straightforward manner; when slacker Simon Baines takes off for a getaway to Las Vegas with his friends, Ronna takes his shift at the 24-hour grocery store where they work. When two guys, named Adam and Zack, walk in asking to score some dope from Simon, Ronna takes it upon herself and her friends Claire and Mannie to buy some some stuff from the local drug dealer Todd Gains. But the drug deal is a sting that AdamandZack are forced to set up by an overzealous narcotics agent, Burke. Ronna is forced to dispose of the drugs. With no other alternative, she tries to double-cross Todd with phony drugs. Meanwhile in Las Vegas, Simon's adventures with his best friend Marcus hit an unfortunate turn during a trip to a strip club, while Adam and Zack end up spending Christmas Eve with Burke and his wife Irene, and afterward while driving to a rave that Ronna is dealing, the guys accidentally hit Ronna with their car and leave her for dead. Nearby, Mannie nearly OD's on dope, and Claire gets more friendly with a vengeful Todd whom is now looking for Ronna. Written by Matthew Patay

Release Date: 9 April 1999 (USA)
Genre: Comedy | Crime | Thriller
MPAA: Rated R for strong drug content, sexuality, language and some violence.
Runtime: 103 min
Country: USA
Language: English

Director:
Doug Liman

Writer (WGA):
John August (written by)

Cast


Katie Holmes ... Claire Montgomery
Sarah Polley ... Ronna Martin
Suzanne Krull ... Stringy Haired Woman
Desmond Askew ... Simon Baines
Nathan Bexton ... Mannie
Robert Peters ... Switterman
Scott Wolf ... Adam
Jay Mohr ... Zack
Timothy Olyphant ... Todd Gaines
Jodi Bianca Wise ... Ballerina Girl
William Fichtner ... Burke
Rita Bland ... Dancing Register Woman
Tony Denman ... Track Suit Guy
Scott Hass ... Raver Dude
Natasha Melnick ... Anorexic Girl


General
Complete name : Go---1999 DVDRIP AVI XVID AC3 5.1 (Terpripken)
Format : AVI
Format/Info : Audio Video Interleave
File size : 976 MiB
Duration : 1h 41mn
Overall bit rate : 1339 Kbps

Video
Format : MPEG-4 Visual
Format profile : [email protected]
Format settings, BVOP : No
Format settings, QPel : No
Format settings, GMC : No warppoints
Format settings, Matrix : Default
Codec ID : XVID
Codec ID/Hint : XviD
Duration : 1h 41mn
Bit rate : 1199 Kbps
Width : 640 pixels
Height : 360 pixels
Display aspect ratio : 16/9
Frame rate : 29.970 fps
Original frame rate : 29.969 fps
Resolution : 8 bits
Colorimetry : 4:2:0
Scan type : Progressive
Bits/(Pixel*Frame) : 0.174
Stream size : 874 MiB (90%)
Writing library : Magic0432

Audio
Format : AC-3
Format/Info : Audio Coding 3
Codec ID : 2000
Bit rate mode : Constant
Bit rate : 128 Kbps
Channel(s) : 6 channels
Channel positions : Front: L C R, Rear: L R, LFE
Sampling rate : 48.0 KHz
Stream size : 93.3 MiB (10%)
Alignment : Aligned on interleaves
Interleave, duration : 32 ms (0.96 video frame)

related torrents

Torrent name

health leech seeds Size

Go 1999 BRRip x264-VLiS

0 0 700.34 MB 0
 


comments (0)

Main Menu