Comedy

Ghoulies 1985 DVDRip XviD [

  • Download 5x Faster
  • Download torrent
  • Direct Download
  • Rate this torrent +  |  -
Ghoulies 1985 DVDRip XviD [

Free and Direct Download with Usenet.nl 300GB+ free


Torrent info

Name:Ghoulies 1985 DVDRip XviD [

Total Size: 744.95 MB

Magnet: Magnet Link

Seeds: 0

Leechers: 0

Stream: Watch Online @ Movie4u

Last Updated: 2010-09-22 21:22:48 (Update Now)

Torrent added: 2009-08-31 06:58:39





Torrent Files List


Ghoulies.nfo (Size: 744.95 MB) (Files: 55)

 Ghoulies.nfo

2.11 KB

 Ghoulies.part01.rar

14.31 MB

 Ghoulies.part02.rar

14.31 MB

 Ghoulies.part03.rar

14.31 MB

 Ghoulies.part04.rar

14.31 MB

 Ghoulies.part05.rar

14.31 MB

 Ghoulies.part06.rar

14.31 MB

 Ghoulies.part07.rar

14.31 MB

 Ghoulies.part08.rar

14.31 MB

 Ghoulies.part09.rar

14.31 MB

 Ghoulies.part10.rar

14.31 MB

 Ghoulies.part11.rar

14.31 MB

 Ghoulies.part12.rar

14.31 MB

 Ghoulies.part13.rar

14.31 MB

 Ghoulies.part14.rar

14.31 MB

 Ghoulies.part15.rar

14.31 MB

 Ghoulies.part16.rar

14.31 MB

 Ghoulies.part17.rar

14.31 MB

 Ghoulies.part18.rar

14.31 MB

 Ghoulies.part19.rar

14.31 MB

 Ghoulies.part20.rar

14.31 MB

 Ghoulies.part21.rar

14.31 MB

 Ghoulies.part22.rar

14.31 MB

 Ghoulies.part23.rar

14.31 MB

 Ghoulies.part24.rar

14.31 MB

 Ghoulies.part25.rar

14.31 MB

 Ghoulies.part26.rar

14.31 MB

 Ghoulies.part27.rar

14.31 MB

 Ghoulies.part28.rar

14.31 MB

 Ghoulies.part29.rar

14.31 MB

 Ghoulies.part30.rar

14.31 MB

 Ghoulies.part31.rar

14.31 MB

 Ghoulies.part32.rar

14.31 MB

 Ghoulies.part33.rar

14.31 MB

 Ghoulies.part34.rar

14.31 MB

 Ghoulies.part35.rar

14.31 MB

 Ghoulies.part36.rar

14.31 MB

 Ghoulies.part37.rar

14.31 MB

 Ghoulies.part38.rar

14.31 MB

 Ghoulies.part39.rar

14.31 MB

 Ghoulies.part40.rar

14.31 MB

 Ghoulies.part41.rar

14.31 MB

 Ghoulies.part42.rar

14.31 MB

 Ghoulies.part43.rar

14.31 MB

 Ghoulies.part44.rar

14.31 MB

 Ghoulies.part45.rar

14.31 MB

 Ghoulies.part46.rar

14.31 MB

 Ghoulies.part47.rar

14.31 MB

 Ghoulies.part48.rar

14.31 MB

 Ghoulies.part49.rar

14.31 MB

 Ghoulies.part50.rar

14.31 MB

 Ghoulies.part51.rar

14.31 MB

 Ghoulies.part52.rar

14.31 MB

 Ghoulies.part53.rar

1.08 MB

 Ghoulies.sfv

4.70 KB
 

Announce URL: http://tracker.ilovetorrents.com/announce.php

Torrent description

A young man and his girlfriend move into thre man's old mansion home, where he becomes possessed by a need to control ancient demons.


Format : AVI
Format/Info : Audio Video Interleave
File size : 745 MiB
Duration : 1h 17mn
Overall bit rate : 1 339 Kbps
Writing application : VirtualDubMod 1.5.10.2 (build 2540/release)
Writing library : VirtualDubMod build 2540/release

Video
Format : MPEG-4 Visual
Format profile : Streaming [email protected]
Format settings, BVOP : Yes
Format settings, QPel : No
Format settings, GMC : No warppoints
Format settings, Matrix : Custom
Codec ID : XVID
Codec ID/Hint : XviD
Duration : 1h 17mn
Bit rate : 1 207 Kbps
Width : 704 pixels
Height : 376 pixels
Display aspect ratio : 1.872
Frame rate : 25.000 fps
Resolution : 24 bits
Colorimetry : 4:2:0
Scan type : Progressive
Bits/(Pixel*Frame) : 0.182
Stream size : 671 MiB (90%)
Writing library : XviD 1.2.0SMP (UTC 2006-01-08)

Audio
Format : MPEG Audio
Format version : Version 1
Format profile : Layer 3
Codec ID : 55
Codec ID/Hint : MP3
Duration : 1h 17mn
Bit rate mode : Variable
Bit rate : 119 Kbps
Nominal bit rate : 128 Kbps
Channel(s) : 2 channels
Sampling rate : 48.0 KHz
Resolution : 16 bits
Stream size : 66.3 MiB (9%)
Alignment : Aligned on interleaves
Interleave, duration : 24 ms (0.60 video frame)
Interleave, preload duration : 154 ms
Writing library : LAME3.90.
Encoding settings : ABR

Link: http://www.imdb.com/title/tt0089200/

related torrents

Torrent name

health leech seeds Size

Ghoulies DVDRip[Eng]1985

0 0 744.94 MB 0

Ghoulies German 1985

0 2 703.00 MB 0
 

comments (0)

Main Menu