Comedy

Ghosts Of Girlfriends Past DVDScr ResourceRG Movies Reidy

  • Download 5x Faster
  • Download torrent
  • Direct Download
  • Rate this torrent +  |  -
Ghosts Of Girlfriends Past DVDScr ResourceRG Movies Reidy

Anonymous and Free Direct Download 300GB+


Torrent info

Name:Ghosts Of Girlfriends Past DVDScr ResourceRG Movies Reidy

Total Size: 1.53 GB

Magnet: Magnet Link

Seeds: 0

Leechers: 0

Stream: Watch Online @ Movie4u

Last Updated: 2014-05-14 05:01:02 (Update Now)

Torrent added: 2009-08-31 06:57:14



VPN For Torrents

Torrent Files List


Ghosts of Girlfriends Past.avi (Size: 1.53 GB) (Files: 3)

 Ghosts of Girlfriends Past.avi

1.53 GB

 resourcerg nfo.nfo

1.21 KB

 Screens.jpg

174.11 KB
 

Announce URL:

Torrent description

Brought to you by TheReids & http://www.reputation-resource.com



This Movie has come from Reputation Resource, im sure you will enjoy it, and there
is many more just like it, If you would like more top class torrents then please
come over and sign up, sign up is easy all you need is an email address.


A Reputation Resource Xvid DVD Screener



Enjoy this Quality Release

Release Title:Ghosts Of Girlfriends Past Dvd Screener
Film Length:1:34:44
Tagline:You can't always run from your past
Storyline:A bachelor is haunted by the ghosts of his past girlfriends at his younger brother's wedding.


Cast:


Matthew McConaughey ... Connor Mead
Jennifer Garner ... Jenny Perotti
Michael Douglas ... Uncle Wayne
Emma Stone ... Allison Vandermeersh
Breckin Meyer ... Paul
Lacey Chabert ... Sandra
Robert Forster ... Sergeant Volkom
Anne Archer ... Vonda Volkom
Daniel Sunjata ... Brad
Noureen DeWulf ... Melanie
Rachel Boston ... Deena the Bridesmaid
Camille Guaty ... Donna the Bridesmaid
Amanda Walsh ... Denice the Bridesmaid
Emily Foxler ... Nadja
Catherine Haena Kim ... Charlece

Genre:Comedy | Fantasy | Romance
IMDB: http://www.imdb.com/title/tt0821640/
Rating: 5.5/10
Language: English
Original Source:N/A
Size of Xvid file:1.52 GB (1,641,559,552 bytes)
Info Hash: 1a151158974fd0bb00f42aaeab1f96040aa48e94

General
Format : AVI
Format/Info : Audio Video Interleave
Format profile : OpenDML
File size : 1.53 GiB
Duration : 1h 34mn
Overall bit rate : 2 310 Kbps
Movie name : convert

Video
ID : 0
Format : MPEG-4 Visual
Format settings, BVOP : Yes
Format settings, QPel : No
Format settings, GMC : No warppoints
Format settings, Matrix : Default (H.263)
Muxing mode : Packed bitstream
Codec ID : DX50
Codec ID/Hint : DivX 5
Duration : 1h 34mn
Bit rate : 2 184 Kbps
Width : 640 pixels
Height : 480 pixels
Display aspect ratio : 1.212
Frame rate : 29.970 fps
Resolution : 24 bits
Colorimetry : 4:2:0
Scan type : Progressive
Bits/(Pixel*Frame) : 0.237
Stream size : 1.45 GiB (95%)
Writing library : DivX 6.5.1 (UTC 2007-03)

Audio
ID : 1
Format : MPEG Audio
Format version : Version 2
Format profile : Layer 3
Codec ID : 55
Codec ID/Hint : MP3
Duration : 1h 34mn
Bit rate mode : Constant
Bit rate : 56.0 Kbps
Channel(s) : 2 channels
Sampling rate : 24.0 KHz
Resolution : 16 bits
Video delay : 9ms
Stream size : 37.9 MiB (2%)
Alignment : Split accross interleaves
Interleave, duration : 1001 ms (30.01 video frames)




Subtitles: N/A


Screenshots of Finished Product!

Ghosts Of Girlfriends Past DVDScr ResourceRG Movies Reidy preview 0

Encoders Notes: None of our screens have been altered or photoshopped to make you think its better than it really is. We hope you enjoy and Thank You! There are no End Credits on this Release!!


Tracker Info:[code]http://genesis.1337x.org:1337
http://open.tracker.thepiratebay.org



PLEASE HELP SEED THIS WHEN DONE! The More Seeds means More Movie Releases!!!


Come and introduce yourself and if you need any advise or have any requests
im sure that there will be someone that can help.


Hope to see you there soon



We also have live 24/7 Radio, Arcade with over 3000 Games, Battle so you
can kill other members and staff, Casino, and much more




Thanks for downloading This Movie



License for software, games , Music and services distributed by Reputation Resource.com

related torrents

Torrent name

health leech seeds Size
 


comments (0)

Main Menu