Comedy

Ghost Of Girlfriends Past 2009 DVDSCR XViD Just4fun

  • Download 5x Faster
  • Download torrent
  • Direct Download
  • Rate this torrent +  |  -
Ghost Of Girlfriends Past 2009 DVDSCR XViD Just4fun

Anonymous and Free Direct Download 300GB+


Torrent info

Name:Ghost Of Girlfriends Past 2009 DVDSCR XViD Just4fun

Total Size: 694.88 MB

Magnet: Magnet Link

Seeds: 0

Leechers: 2

Stream: Watch Online @ Movie4u

Last Updated: 2015-10-07 08:38:22 (Update Now)

Torrent added: 2009-08-31 06:54:41



VPN For Torrents

Torrent Files List


j4f-gogp.r25 (Size: 694.88 MB) (Files: 52)

 j4f-gogp.r25

14.31 MB

 j4f-gogp.r00

14.31 MB

 j4f-gogp.r01

14.31 MB

 j4f-gogp.r02

14.31 MB

 j4f-gogp.r03

14.31 MB

 j4f-gogp.r04

14.31 MB

 j4f-gogp.r05

14.31 MB

 j4f-gogp.r06

14.31 MB

 j4f-gogp.r07

14.31 MB

 j4f-gogp.r08

14.31 MB

 j4f-gogp.r09

14.31 MB

 j4f-gogp.r10

14.31 MB

 j4f-gogp.r11

14.31 MB

 j4f-gogp.r12

14.31 MB

 j4f-gogp.r13

14.31 MB

 j4f-gogp.r14

14.31 MB

 j4f-gogp.r15

14.31 MB

 j4f-gogp.r16

14.31 MB

 j4f-gogp.r17

14.31 MB

 j4f-gogp.r18

14.31 MB

 j4f-gogp.r19

14.31 MB

 j4f-gogp.r20

14.31 MB

 j4f-gogp.r21

14.31 MB

 j4f-gogp.r22

14.31 MB

 j4f-gogp.r23

14.31 MB

 j4f-gogp.r24

14.31 MB

 j4f-gogp.r38

14.31 MB

 j4f-gogp.r26

14.31 MB

 j4f-gogp.r27

14.31 MB

 j4f-gogp.r28

14.31 MB

 j4f-gogp.r29

14.31 MB

 j4f-gogp.r30

14.31 MB

 j4f-gogp.r31

14.31 MB

 j4f-gogp.r32

14.31 MB

 j4f-gogp.r33

14.31 MB

 j4f-gogp.r34

14.31 MB

 j4f-gogp.r35

14.31 MB

 j4f-gogp.r36

14.31 MB

 j4f-gogp.r37

14.31 MB

 j4f-gogp.r44

14.31 MB

 j4f-gogp.r39

14.31 MB

 j4f-gogp.r40

14.31 MB

 j4f-gogp.r41

14.31 MB

 j4f-gogp.r42

14.31 MB

 j4f-gogp.r43

14.31 MB

 j4f-gogp.r45

14.31 MB

 j4f-gogp.r46

14.31 MB

 j4f-gogp.rar

14.31 MB

 j4f-gogp.r47

8.23 MB

 j4f-gogp.sfv

3.54 KB

 j4f-gogp.nfo

2.33 KB

 Torrent downloaded from Demonoid.com.txt

0.05 KB
 

tracker

leech seeds
 

Torrent description

Video
Format : MPEG-4 Visual
Format profile : Streaming [email protected]
Format settings, BVOP : Yes
Format settings, QPel : No
Format settings, GMC : No warppoints
Format settings, Matrix : Default (H.263)
Muxing mode : Packed bitstream
Codec ID : XVID
Codec ID/Hint : XviD
Duration : 1h 34mn
Bit rate : 895 Kbps
Width : 640 pixels
Height : 272 pixels
Display aspect ratio : 2.35
Frame rate : 25.000 fps
Resolution : 24 bits
Colorimetry : 4:2:0
Scan type : Progressive
Bits/(Pixel*Frame) : 0.206
Stream size : 607 MiB (87%)
Writing library : XviD 1.1.2 (UTC 2006-11-01)

Audio
Format : MPEG Audio
Format version : Version 1
Format profile : Layer 3
Codec ID : 55
Codec ID/Hint : MP3
Duration : 1h 34mn
Bit rate mode : Constant
Bit rate : 128 Kbps
Channel(s) : 2 channels
Sampling rate : 48.0 KHz
Resolution : 16 bits
Stream size : 86.7 MiB (12%)
Alignment : Aligned on interleaves
Interleave, duration : 40 ms (1.00 video frame)
Interleave, preload duration : 504 ms
Writing library : LAME3.98r

A bachelor is haunted by the ghosts of his past girlfriends at his younger brother's wedding

http://www.imdb.com/title/tt0821640/

related torrents

Torrent name

health leech seeds Size
 


comments (0)

Main Menu