Comedy

Ghost Town[2008] Dvdrip Xvid [Engsub] AC3[5 1] RoCK&BlueLadyRG

  • Download 5x Faster
  • Download torrent
  • Direct Download
  • Rate this torrent +  |  -
Ghost Town[2008] Dvdrip Xvid [Engsub] AC3[5 1] RoCK&BlueLadyRG

Anonymous and Free Direct Download 300GB+


Torrent info

Name:Ghost Town[2008] Dvdrip Xvid [Engsub] AC3[5 1] RoCK&BlueLadyRG

Total Size: 1.66 GB

Magnet: Magnet Link

Seeds: 0

Leechers: 0

Stream: Watch Online @ Movie4u

Last Updated: 2010-07-29 05:44:16 (Update Now)

Torrent added: 2009-08-31 06:53:53



VPN For Torrents

Torrent Files List


Ghost.Town[2008].Dvdrip.Xvid.[Engsub].AC3[5.1]-RoCK&BlueLadyRG.avi (Size: 1.66 GB) (Files: 3)

 Ghost.Town[2008].Dvdrip.Xvid.[Engsub].AC3[5.1]-RoCK&BlueLadyRG.avi

1.66 GB

 Ghost.Town[2008].Dvdrip.Xvid.[Engsub].AC3[5.1]-RoCK&BlueLadyRG.nfo

5.76 KB

 Ghost.Town[2008].Dvdrip.Xvid.[Engsub].AC3[5.1]-RoCK&BlueLadyRG.srt

124.78 KB
 

Announce URL: http://vip.tracker.thepiratebay.org:80/announce

Torrent description

Dual audio English/Directors commentary


RoCK & BlueLady RG

*******************************************************************************
Proudly presents: Ghost Town (2008)
*******************************************************************************

-------------------------------------------------------------------------------
General Information
-------------------------------------------------------------------------------
Type : Movie
Burn Tested : Yes
Subtitles : English
: Dutch/Spanish can be found on http://www.genesis-sp.com

Format : AVI
Format/Info : Audio Video Interleave
File size : 1.66 GiB
Duration : 1h 42mn
Overall bit rate : 2 323 Kbps
Writing application : VirtualDubMod 1.5.10.2 (build 2540/release)
Writing library : VirtualDubMod build 2540/release

Audio Enlish
Format : AC-3
Format/Info : Audio Coding 3
Codec ID : 2000
Duration : 1h 42mn
Bit rate mode : Constant
Bit rate : 448 Kbps
Channel(s) : 6 channels
Channel positions : Front: L C R, Surround: L R, LFE
Sampling rate : 48.0 KHz
Stream size : 328 MiB (19%)
Alignment : Split accross interleaves
Interleave, duration : 33 ms (1.00 video frame)
Interleave, preload duration : 500 ms

Audio Director's commend
Format : AC-3
Format/Info : Audio Coding 3
Codec ID : 2000
Duration : 1h 42mn
Bit rate mode : Constant
Bit rate : 192 Kbps
Channel(s) : 2 channels
Channel positions : L R
Sampling rate : 48.0 KHz
Stream size : 140 MiB (8%)
Alignment : Split accross interleaves
Interleave, duration : 33 ms (1.00 video frame)
Interleave, preload duration : 500 ms

Video
Format : MPEG-4 Visual
Format settings, BVOP : No
Format settings, QPel : No
Format settings, GMC : No warppoints
Format settings, Matrix : Default
Codec ID : XVID
Codec ID/Hint : XviD
Duration : 1h 42mn
Bit rate : 1 665 Kbps
Width : 704 pixels
Height : 384 pixels
Display aspect ratio : 16/9
Frame rate : 29.970 fps
Resolution : 24 bits
Colorimetry : 4:2:0
Scan type : Progressive
Bits/(Pixel*Frame) : 0.205
Stream size : 1.19 GiB (72%)
Writing library : XviD 1.0.3 (UTC 2004-12-20)


Source : Retail-DVD
Original Format : NTSC
Genre : Comedy | Fantasy | Romance
IMDb Rating : 7.4 (6,052 Votes)
Movie Information : http://www.imdb.com/title/tt0995039/

-------------------------------------------------------------------------------
Post Information
-------------------------------------------------------------------------------
Posted by............: RoCK (http://www.genesis-sp.com)
Posted on............: 28-12-2008

-------------------------------------------------------------------------------
Release Notes
-------------------------------------------------------------------------------
Bertram Pincus is a man whose people skills leave much to be desired. When Pincus
dies unexpectedly, but is miraculously revived after seven minutes, he wakes up
to discover that he now has the annoying ability to see ghosts. Even worse, they
all want something from him, particularly Frank Herlihy who pesters him into
breaking up the impending marriage of his widow Gwen. That puts Pincus squarely
in the middle of a triangle with spirited result.

Director: David Koepp

Writers : David Koepp
John Kamps

Cast :

Greg Kinnear ... Frank Herlihy
Jordan Carlos ... Young Husband
Dequina Moore ... Young Wife
Joseph Badalucco Jr. ... Accident Bystander #1 (as Joe Badalucco)
Brian Hutchison ... Accident Bystander #2
Tyree Michael Simpson ... Sneezy Cop (as Tyre Simpson)
Julia K. Murney ... Sneezy Lady
Ricky Gervais ... Bertram Pincus D.D.S.
Claire Lautier ... Upper East Side Lady
Aasif Mandvi ... Dr. Prashar
Bridget Moloney ... Receptionist
Raymond J. Lee ... Greenpeace Guy (as Raymond Lee)
Joey Mazzarino ... Food Delivery Guy
Brad Oscar ... Day Doorman
Kathleen Landis ... Resident

Enjoy this movie!



------------------------------------------------------------------------------------------
Announcement
------------------------------------------------------------------------------------------
I decided to drop the 1cd versions and replace them with movies in MKV format. This means
smaller filesizes with higher quality. The movies you can watch in VLC or download the x264
codec!

If you want to decode it and burn it on dvd use convertxtodvd 3


RoCK.






------------------------------------------------------------------------------------------
You can find us both at: http://www.genesis-sp.com/
------------------------------------------------------------------------------------------

related torrents

Torrent name

health leech seeds Size
 


comments (0)

Main Menu