Comedy

Get Smarts Bruce And Lloyd Out Of Control VOSTFR DVDRIP XVID FLF

  • Download 5x Faster
  • Download torrent
  • Direct Download
  • Rate this torrent +  |  -
Get Smarts Bruce And Lloyd Out Of Control VOSTFR DVDRIP XVID FLF

Anonymous and Direct Download 300GB+ free


Torrent info

Name:Get Smarts Bruce And Lloyd Out Of Control VOSTFR DVDRIP XVID FLF

Total Size: 701.20 MB

Magnet: Magnet Link

Seeds: 0

Leechers: 0

Stream: Watch Online @ Movie4u

Last Updated: 2010-07-08 02:10:21 (Update Now)

Torrent added: 2009-08-31 06:48:26




Torrent Files List


Get.Smart's.Bruce.And.Lloyd.VOSTFR.DVDRIP.XVID-FLF.avi (Size: 701.20 MB) (Files: 3)

 Get.Smart's.Bruce.And.Lloyd.VOSTFR.DVDRIP.XVID-FLF.avi

701.11 MB

 Get.Smart's.Bruce.And.Lloyd.VOSTFR.DVDRIP.XVID-FLF.nfo

13.08 KB

 Get.Smart's.Bruce.And.Lloyd.VOSTFR.DVDRIP.XVID-FLF.srt

77.33 KB
 

Announce URL: http://a.tracker.thepiratebay.org/announce

Torrent description

Get.Smart's.Bruce.And.Lloyd.Out.Of.Control.VOSTFR.DVDRIP.XVID-FLF

TEAM FLF

2008

Action | Comedy

01:11:41

2008

5.2/10 (342 votes)

General
Complete name : Get.Smart's.Bruce.And.Lloyd.Out.Of.Control.VOSTFR.DVDRIP.XVID-FLF
Format : AVI
Format/Info : Audio Video Interleave
File size : 701 MiB
Duration : 1h 11mn
Overall bit rate : 1 367 Kbps

Video
Format : MPEG-4 Visual
Format profile : Streaming [email protected]
Format settings, BVOP : Yes
Format settings, QPel : No
Format settings, GMC : No warppoints
Format settings, Matrix : Default
Codec ID : DX50
Codec ID/Hint : DivX 5
Duration : 1h 11mn
Bit rate : 1 166 Kbps
Width : 704 pixels
Height : 384 pixels
Display aspect ratio : 16/9
Frame rate : 23.976 fps
Resolution : 24 bits
Colorimetry : 4:2:0
Scan type : Progressive
Bits/(Pixel*Frame) : 0.180
Stream size : 598 MiB (85%)
Writing library : XviD 1.0.3 (UTC 2004-12-20)

Audio
Format : MPEG Audio
Format version : Version 1
Format profile : Layer 3
Codec ID : 55
Codec ID/Hint : MP3
Duration : 1h 11mn
Bit rate mode : Constant
Bit rate : 192 Kbps
Channel(s) : 2 channels
Sampling rate : 48.0 KHz
Resolution : 16 bits
Stream size : 98.4 MiB (14%)
Alignment : Aligned on interleaves
Interleave, duration : 42 ms (1.00 video frame)
Interleave, preload duration : 504 ms

Language : ENG
Subtitles : FR

Qualité : DVDRiP
Format : XviD
Langue : Anglais
Sous-titre : Français
Nombre de fichiers : 3 Fichiers
Taille des fichiers : 700 Mo

related torrents

Torrent name

health leech seeds Size
 


comments (0)

Main Menu