Jazz

(JazzPlanet) Art Blakey & The Jazz Messangers A Night In Tunisia [Eac Flac Cue] UF SPG

  • Download 5x Faster
  • Download torrent
  • Direct Download
  • Rate this torrent +  |  -

Torrent info

Name:(JazzPlanet) Art Blakey & The Jazz Messangers A Night In Tunisia [Eac Flac Cue] UF SPG

Total Size: 358.85 MB

Magnet: Magnet Link

Seeds: 0

Leechers: 0

Stream: Watch Online @ Movie4u

Last Updated: 2015-12-17 22:40:16 (Update Now)

Torrent added: 2009-08-31 06:35:13



VPN For Torrents

Torrent Files List


scans (Size: 358.85 MB) (Files: 12)

 scans

  back.jpg

1.95 MB

  booklet 1.jpg

1.65 MB

  booklet 2.jpg

1.67 MB

  booklet 3.jpg

1.97 MB

  booklet 4.jpg

1.83 MB

  booklet 5.jpg

1.65 MB

  booklet 6.jpg

1.79 MB

  cd .png

2.59 MB

  front.jpg

3.97 MB

 Art Blakey & The Jazz Messengers - A Night In Tunisia.cue

1.19 KB

 Art Blakey & The Jazz Messengers - A Night In Tunisia.flac

339.77 MB

 Art Blakey & The Jazz Messengers - A Night In Tunisia.log

2.48 KB
 

tracker

leech seeds
 

Torrent description

Art Blakey & The Jazz Messengers - A night In Tunisia

Title: Art Blakey & The Jazz Messengers - A night In Tunisia
Leader Artist: Art Blakey & The Jazz Messengers
Genre: Jazz
Registration: 1960
Audio CD : 2005
Number of Discs: 1
Format: Live
Label: Jazz
Extractor: EAC 0.99 prebeta 3
Read Mode: Secure with NO C2, accurate stream, disable cache.
Codec: Flac 1.2.1b; Level 6
Files: Wav image track, file.Cue, Eac.log
Size Torrent: 358 Mb
Covers & Booklet: Inclused


Tracklist

01. A Night In Tunisia (Gillespie - Paparelli) - 11:13
02. Sincerely Diana (Shorter) - 6:48
03. So Tired (Timmons) - 6:37
04. Yama (Morgan) - 6:22
05. Kozo's Waltz (Morgan) - 6:46
06. When Your Lover Has Gone (Einer Swan) - 6:44
07. Sincerely Diana (alternate take) - 6:58

Personnell

Lee Morgan - Trumpet
Wayne Shorter - Tenor Sax
Bobby Timmons - Piano
Jymie Merritt - Bass
Art Blakey - Drums

EAC

Exact Audio Copy V0.99 prebeta 3 from 28. July 2007

EAC extraction logfile from 30. August 2009, 13:57

Art Blakey & The Jazz Messengers / A Night In Tunisia

Used drive : ASUS DRW-2014L1T Adapter: 3 ID: 1

Read mode : Secure
Utilize accurate stream : Yes
Defeat audio cache : Yes
Make use of C2 pointers : No

Read offset correction : 6
Overread into Lead-In and Lead-Out : No
Fill up missing offset samples with silence : Yes
Delete leading and trailing silent blocks : No
Null samples used in CRC calculations : Yes
Used interface : Installed external ASPI interface

Used output format : User Defined Encoder
Selected bitrate : 1024 kBit/s
Quality : High
Add ID3 tag : No
Command line compressor : C:\Program Files\Exact Audio Copy\FLAC\FLAC.EXE
Additional command line options : -8 -V -T "ARTIST=%a" -T "TITLE=%t" -T "ALBUM=%g" -T "DATE=%y" -T "TRACKNUMBER=%n" -T "GENRE=%m" -T "COMMENT=%e" %s -o %d


TOC of the extracted CD

Track | Start | Length | Start sector | End sector
---------------------------------------------------------
1 | 0:00.00 | 11:16.24 | 0 | 50723
2 | 11:16.24 | 6:51.10 | 50724 | 81558
3 | 18:07.34 | 6:39.15 | 81559 | 111498
4 | 24:46.49 | 6:24.67 | 111499 | 140365
5 | 31:11.41 | 6:49.09 | 140366 | 171049
6 | 38:00.50 | 6:45.24 | 171050 | 201448
7 | 44:45.74 | 6:58.17 | 201449 | 232815


Range status and errors

Selected range

Filename E:\da rellare\(JazzPlanet) Art Blakey & The Jazz Messengers - A Night In Tunisia [Eac-Flac-Cue] UF SPG\Art Blakey & The Jazz Messengers - A Night In Tunisia.wav

Peak level 97.9 %
Range quality 100.0 %
Test CRC C03FDE3E
Copy CRC C03FDE3E
Copy OK

No errors occurred


AccurateRip summary

Track 1 accurately ripped (confidence 8) [E55E26FA]
Track 2 accurately ripped (confidence 8) [1820DC25]
Track 3 accurately ripped (confidence 8) [DC0990F0]
Track 4 accurately ripped (confidence 8) [57068012]
Track 5 accurately ripped (confidence 8) [45C25AB9]
Track 6 accurately ripped (confidence 8) [C773AC6D]
Track 7 accurately ripped (confidence 8) [2426EC60]

All tracks accurately ripped

End of status report

ACCURATE RIP

Bandwith 500 Kb/sec 24/7

related torrents

Torrent name

health leech seeds Size
 


comments (0)

Main Menu