Pop

Britney Spears If U Seek Amy DVDRip x264[h33t][Dave3737]

  • Download 5x Faster
  • Download torrent
  • Direct Download
  • Rate this torrent +  |  -
Britney Spears If U Seek Amy DVDRip x264[h33t][Dave3737]

Anonymous and Free Direct Download 300GB+


Torrent info

Name:Britney Spears If U Seek Amy DVDRip x264[h33t][Dave3737]

Total Size: 73.37 MB

Magnet: Magnet Link

Seeds: 0

Leechers: 0

Stream: Watch Online @ Movie4u

Last Updated: 2016-02-02 04:35:15 (Update Now)

Torrent added: 2009-08-31 06:34:58



VPN For Torrents

Torrent Files List


Britney Spears If U Seek Amy DVDRip x264.mkv (Size: 73.37 MB) (Files: 4)

 Britney Spears If U Seek Amy DVDRip x264.mkv

73.36 MB

 britney Spears If U Seek Amy DVDRip x264.txt

3.69 KB

 h33t - Dave 3737 Torrent list.URL

0.07 KB

 tracked_by_h33t_com.txt

0.02 KB
 

tracker

leech seeds
 

Torrent description

Britney Spears If U Seek Amy DVDRip x264.mkv

Screenshots

Britney Spears If U Seek Amy DVDRip x264[h33t][Dave3737] preview 0


General

Complete name : Britney Spears If U Seek Amy DVDRip x264.mkv
Format : Matroska
File size : 73.4 MiB
Duration : 3mn 44s
Overall bit rate : 2 747 Kbps
Encoded date : UTC 2009-08-29 14:37:11
Writing application : mkvmerge v2.5.2 ('Stranger in your Soul') built on Feb 28 2009 18:58:17
Writing library : libebml v0.7.7 + libmatroska v0.8.1

Video

ID : 1
Format : AVC
Format/Info : Advanced Video Codec
Format profile : [email protected]
Format settings, CABAC : Yes
Format settings, ReFrames : 5 frames
Muxing mode : Container [email protected]
Codec ID : V_MPEG4/ISO/AVC
Duration : 3mn 44s
Bit rate : 2 522 Kbps
Width : 704 pixels
Height : 400 pixels
Display aspect ratio : 16/9
Frame rate : 25.000 fps
Resolution : 24 bits
Colorimetry : 4:2:0
Scan type : Progressive
Bits/(Pixel*Frame) : 0.358
Stream size : 67.4 MiB (92%)
Writing library : x264 core 67 r1153 7b6ce6a
Encoding settings : cabac=1 / ref=5 / deblock=1:0:0 / analyse=0x1:0x111 / me=umh / subme=8 / psy_rd=1.0:0.0 / mixed_ref=0 / me_range=16 / chroma_me=1 / trellis=1 / 8x8dct=0 / cqm=0 / deadzone=21,11 / chroma_qp_offset=-2 / threads=1 / nr=0 / decimate=1 / mbaff=0 / bframes=3 / b_pyramid=0 / b_adapt=1 / b_bias=0 / direct=2 / wpredb=0 / keyint=250 / keyint_min=25 / scenecut=40 / rc=crf / crf=20.0 / qcomp=0.60 / qpmin=10 / qpmax=51 / qpstep=4 / ip_ratio=1.40 / pb_ratio=1.30 / aq=1:1.00
Language : English

Audio

ID : 2
Format : MPEG Audio
Format version : Version 1
Format profile : Layer 3
Codec ID : A_MPEG/L3
Codec ID/Hint : MP3
Duration : 3mn 44s
Bit rate mode : Variable
Bit rate : 170 Kbps
Minimum bit rate : 32.0 Kbps
Channel(s) : 2 channels
Sampling rate : 44.1 KHz
Resolution : 16 bits
Stream size : 4.53 MiB (6%)
Writing library : LAME3.97
Encoding settings : -m j -V 2 -q 3 -lowpass 18.6 --vbr-new -b 32
Language : English


Information..........: Visit h33t.com for all the best releases
Files................: 4
Included.............: Info.txt,tracked by h33t.com.txt,user details php,.mkv
Tracker..............: http://www.h33t.com:3310/announce

http://www.h33t.com/userdetails.php?id=53211 My Torrents

related torrents

Torrent name

health leech seeds Size
 


comments (0)

Main Menu