Comedy

Fandango (1985)

  • Download 5x Faster
  • Download torrent
  • Direct Download
  • Rate this torrent +  |  -
Fandango (1985)

Anonymous and Direct Download 300GB+ free


Torrent info

Name:Fandango (1985)

Total Size: 697.69 MB

Magnet: Magnet Link

Seeds: 0

Leechers: 0

Stream: Watch Online @ Movie4u

Last Updated: 2014-09-05 04:22:18 (Update Now)

Torrent added: 2009-08-31 05:44:06




Torrent Files List


Fandango (1985) Kevin Costner DVDrip_Kuth.avi (Size: 697.69 MB) (Files: 4)

 Fandango (1985) Kevin Costner DVDrip_Kuth.avi

697.16 MB

 Info about this release.txt

4.54 KB

 Notes on subtitle files.txt

1.68 KB

 Optional English subtitles.rar

536.09 KB
 

Announce URL:

Torrent description

Fandango (1985)
Optional English subtitle in separate idx/sub files.

One of Kevin Costner's very first films, I cannot understand why there is no torrent for it anywhere, so I made a rip. Really funny and entertaining: A bunch of friends go on a road trip before they are drafted for the Vietnam war in the early '70s. Gives a good demonstration of how you can drag your dead car into action with a moving freight train, and how you should NOT perform your first parachute jump.

Surprisingly, the DVD has widescreen and stereo. Not bad for a film produced at that time.

2-pass DVDrip Xvid 704x384, AC3.
Burn tested, runs well in both my standalone DivX players.

Format/Info : Audio Video Interleave
File size : 697 MiB
Duration : 1h 26mn
Overal bit rate : 1121 Kbps

Video
Format : MPEG-4 Visual
Format profile : Streaming [email protected]
Format settings, BVOP : Yes
Format settings, QPel : No
Format settings, GMC : No warppoints
Format settings, Matrix : Default
Muxing mode : Packet Bitstream
Codec ID : XVID
Codec ID/Hint : XviD
Duration : 1h 26mn
Bit rate : 983 Kbps
Width : 704 pixels
Height : 384 pixels
Display aspect ratio : 16/9
Frame rate : 25.000 fps
Resolution : 8 bits
Colorimetry : 4:2:0
Scan type : Progressive
Bits/(Pixel*Frame) : 0.145
Stream size : 612 MiB
Writing library : XviD 1.2.0.dev47 (UTC 2006-11-01)

Audio
Format : MPEG Audio
Format version : Version 1
Format profile : Layer 3
Codec ID : 55
Codec ID/Hint : MP3
Duration : 1h 26mn
Bit rate mode : Constant
Bit rate : 128 Kbps
Minimum bit rate : 128 Kbps
Channel(s) : 2 channels
Sampling rate : 48.0 KHz
Resolution : 16 bits
Stream size : 79.6 MiB
Writing library : LAME3.97
Encoding settings : CBR

Source: PAL rental (note that PAL/NTSC will give no problems for avi files)


Thanks Kuthumi!

Seeders are winners!

related torrents

Torrent name

health leech seeds Size

Fandango (1985) DVD

3 3 4.14 GB 0

Fandango (1985)

0 0 1.67 GB 0
 


comments (0)

Main Menu