Trance / House / Dance

Kai Tracid 'Trance & Acid' (2002) (Lossless) KEVOO7

  • Download 5x Faster
  • Download torrent
  • Direct Download
  • Rate this torrent +  |  -
Kai Tracid 'Trance & Acid' (2002) (Lossless) KEVOO7

Free and Direct Download with Usenet 300GB+ free


Torrent info

Name:Kai Tracid 'Trance & Acid' (2002) (Lossless) KEVOO7

Total Size: 394.15 MB

Magnet: Magnet Link

Seeds: 0

Leechers: 0

Stream: Watch Online @ Movie4u

Last Updated: 2015-09-01 07:11:27 (Update Now)

Torrent added: 2009-08-31 05:32:00




Torrent Files List


00. Kai Tracid 'Trance & Acid' (2002) (Lossless) -KEVOO7.m3u (Size: 394.15 MB) (Files: 17)

 00. Kai Tracid 'Trance & Acid' (2002) (Lossless) -KEVOO7.m3u

0.90 KB

 00. Kai Tracid 'Trance & Acid' (2002) (Lossless) -KEVOO7.nfo

8.95 KB

 00. Kai Tracid 'Trance & Acid' (2002) (Lossless) -KEVOO7.sfv

1.73 KB

 01. Tracid Theme.flac

7.59 MB

 02. Tiefenrausch (The Deep Blue).flac

27.01 MB

 03. Bad Shape.flac

40.08 MB

 04. Destiny's Path.flac

26.36 MB

 05. Message Without Words.flac

25.37 MB

 06. Too Many Times.flac

26.99 MB

 07. Suicide.flac

45.60 MB

 08. Life Is Too Short.flac

26.71 MB

 09. Peyote Song.flac

25.85 MB

 10. Trance & Acid.flac

42.40 MB

 11. Voyager.flac

49.90 MB

 12. Destiny's Path (Warmduscher Remix).flac

37.95 MB

 13. The Worst Pain Of All.flac

12.35 MB

 Torrent downloaded from Demonoid.com.txt

0.04 KB
 

tracker

leech seeds
 

Torrent description

ÏÏÏÏÏÏÏÏÏÏÏÏÏÏÏÏÏÏÏÏÏÏÏÏÏÏÏÏÏÏÏÏÏÏÏÏÏÏÏÏÏÏÏÏÏÏÏÏÏÏÏÏÏÏÏÏÏÏÏÏÏÏÏÏÏÏÏÏÏÏÏÏÏÏÏÏÏÏÏÏÏÏÏÏÏÏÏÏÏÏÏÏÏÏÏÏÏÏÏÏÏÏÏÏÏ
Information
Artist.............: Kai Tracid
Album..............: Trance & Acid
Year...............: 2002
Genre..............: Trance & Acid

Duration
CD 1.............: 61 Minutes And 53 Seconds
Number Of Tracks
CD 1.............: 13

Size...............: 394 MB

Audio Format.......: FLAC
Ripper.............: Exact Audio Copy v0.99 Prebeta 4
Encoder............: FLAC 1.2.1b
Bitrate............: Lossless
Hz.................: 44,100
Channels...........: Stereo
Reader.............: Plextor PX-760A
Source.............: Retail CD

Tagged With........: Tag&Rename v3.2

File Validation....: SFV

ÏÏÏÏÏÏÏÏÏÏÏÏÏÏÏÏÏÏÏÏÏÏÏÏÏÏÏÏÏÏÏÏÏÏÏÏÏÏÏÏÏÏÏÏÏÏÏÏÏÏÏÏÏÏÏÏÏÏÏÏÏÏÏÏÏÏÏÏÏÏÏÏÏÏÏÏÏÏÏÏÏÏÏÏÏÏÏÏÏÏÏÏÏÏÏÏÏÏÏÏÏÏÏÏÏ
Tracklist
01. Tracid Theme [1:16]
02. Tiefenrausch (The Deep Blue) [3:57]
03. Bad Shape [6:27]
04. Destiny\'s Path [4:05]
05. Message Without Words [4:10]
06. Too Many Times [3:52]
07. Suicide [7:14]
08. Life Is Too Short [3:43]
09. Peyote Song [3:45]
10. Trance & Acid [7:06]
11. Voyager [7:17]
12. Destiny\'s Path (Warmduscher Remix) [6:23]
13. The Worst Pain Of All [2:38]

ÏÏÏÏÏÏÏÏÏÏÏÏÏÏÏÏÏÏÏÏÏÏÏÏÏÏÏÏÏÏÏÏÏÏÏÏÏÏÏÏÏÏÏÏÏÏÏÏÏÏÏÏÏÏÏÏÏÏÏÏÏÏÏÏÏÏÏÏÏÏÏÏÏÏÏÏÏÏÏÏÏÏÏÏÏÏÏÏÏÏÏÏÏÏÏÏÏÏÏÏÏÏÏÏÏ
Extraction Log

Exact Audio Copy V0.99 prebeta 4 from 23. January 2008

EAC extraction logfile from 3. September 2008, 18:31

Unknown Artist / Unknown Title

Used drive : PLEXTOR DVDR PX-760A Adapter: 1 ID: 0

Read mode : Secure
Utilize accurate stream : Yes
Defeat audio cache : Yes
Make use of C2 pointers : No

Read offset correction : 30
Overread into Lead-In and Lead-Out : No
Fill up missing offset samples with silence : Yes
Delete leading and trailing silent blocks : No
Null samples used in CRC calculations : No
Used interface : Installed external ASPI interface
Gap handling : Not detected, thus appended to previous track

Used output format : User Defined Encoder
Selected bitrate : 256 kBit/s
Quality : High
Add ID3 tag : No
Command line compressor : C:\\Program Files\\FLAC\\flac.exe
Additional command line options : -8 %s


TOC of the extracted CD

Track | Start | Length | Start sector | End sector
---------------------------------------------------------
1 | 0:08.00 | 1:16.71 | 600 | 6370
2 | 1:24.71 | 3:57.23 | 6371 | 24168
3 | 5:22.19 | 6:27.05 | 24169 | 53198
4 | 11:49.24 | 4:05.40 | 53199 | 71613
5 | 15:54.64 | 4:10.62 | 71614 | 90425
6 | 20:05.51 | 3:52.48 | 90426 | 107873
7 | 23:58.24 | 7:14.22 | 107874 | 140445
8 | 31:12.46 | 3:43.30 | 140446 | 157200
9 | 34:56.01 | 3:45.33 | 157201 | 174108
10 | 38:41.34 | 7:06.40 | 174109 | 206098
11 | 45:47.74 | 7:17.10 | 206099 | 238883
12 | 53:05.09 | 6:23.35 | 238884 | 267643
13 | 59:28.44 | 2:38.60 | 267644 | 279553
14 | 64:39.29 | 0:08.00 | 290954 | 291553


Track 1

Filename C:\\Documents and Settings\\KEVOO7\\My Documents\\New Rip\'s\\Track01.wav

Peak level 98.0 %
Track quality 100.0 %
Test CRC 6AA71C2B
Copy CRC 6AA71C2B
Copy OK

Track 2

Filename C:\\Documents and Settings\\KEVOO7\\My Documents\\New Rip\'s\\Track02.wav

Peak level 98.0 %
Track quality 100.0 %
Test CRC E4001EE6
Copy CRC E4001EE6
Copy OK

Track 3

Filename C:\\Documents and Settings\\KEVOO7\\My Documents\\New Rip\'s\\Track03.wav

Peak level 98.0 %
Track quality 100.0 %
Test CRC 78BB101A
Copy CRC 78BB101A
Copy OK

Track 4

Filename C:\\Documents and Settings\\KEVOO7\\My Documents\\New Rip\'s\\Track04.wav

Peak level 98.0 %
Track quality 100.0 %
Test CRC BAECD073
Copy CRC BAECD073
Copy OK

Track 5

Filename C:\\Documents and Settings\\KEVOO7\\My Documents\\New Rip\'s\\Track05.wav

Peak level 98.3 %
Track quality 100.0 %
Test CRC CEB35D46
Copy CRC CEB35D46
Copy OK

Track 6

Filename C:\\Documents and Settings\\KEVOO7\\My Documents\\New Rip\'s\\Track06.wav

Peak level 98.0 %
Track quality 100.0 %
Test CRC AECB30AD
Copy CRC AECB30AD
Copy OK

Track 7

Filename C:\\Documents and Settings\\KEVOO7\\My Documents\\New Rip\'s\\Track07.wav

Peak level 98.1 %
Track quality 100.0 %
Test CRC BEEACB42
Copy CRC BEEACB42
Copy OK

Track 8

Filename C:\\Documents and Settings\\KEVOO7\\My Documents\\New Rip\'s\\Track08.wav

Peak level 98.0 %
Track quality 100.0 %
Test CRC 3BD9663C
Copy CRC 3BD9663C
Copy OK

Track 9

Filename C:\\Documents and Settings\\KEVOO7\\My Documents\\New Rip\'s\\Track09.wav

Peak level 98.2 %
Track quality 99.9 %
Test CRC 6EA2457E
Copy CRC 6EA2457E
Copy OK

Track 10

Filename C:\\Documents and Settings\\KEVOO7\\My Documents\\New Rip\'s\\Track10.wav

Peak level 98.0 %
Track quality 100.0 %
Test CRC 59EF34C7
Copy CRC 59EF34C7
Copy OK

Track 11

Filename C:\\Documents and Settings\\KEVOO7\\My Documents\\New Rip\'s\\Track11.wav

Peak level 98.3 %
Track quality 100.0 %
Test CRC 86E2B699
Copy CRC 86E2B699
Copy OK

Track 12

Filename C:\\Documents and Settings\\KEVOO7\\My Documents\\New Rip\'s\\Track12.wav

Peak level 96.5 %
Track quality 100.0 %
Test CRC 5C0C6D2F
Copy CRC 5C0C6D2F
Copy OK

Track 13

Filename C:\\Documents and Settings\\KEVOO7\\My Documents\\New Rip\'s\\Track13.wav

Peak level 89.2 %
Track quality 100.0 %
Test CRC 76490AD8
Copy CRC 76490AD8
Copy OK

No errors occurred

End of status report

ÏÏÏÏÏÏÏÏÏÏÏÏÏÏÏÏÏÏÏÏÏÏÏÏÏÏÏÏÏÏÏÏÏÏÏÏÏÏÏÏÏÏÏÏÏÏÏÏÏÏÏÏÏÏÏÏÏÏÏÏÏÏÏÏÏÏÏÏÏÏÏÏÏÏÏÏÏÏÏÏÏÏÏÏÏÏÏÏÏÏÏÏÏÏÏÏÏÏÏÏÏÏÏÏÏ

related torrents

Torrent name

health leech seeds Size
 

comments (0)

Main Menu