Comedy

Ernest scared Stupid 1991 DvdRip Xvid [

  • Download 5x Faster
  • Download torrent
  • Direct Download
  • Rate this torrent +  |  -
Ernest scared Stupid 1991 DvdRip Xvid [

Free and Direct Download with Usenet.nl 300GB+ free


Torrent info

Name:Ernest scared Stupid 1991 DvdRip Xvid [

Total Size: 700.22 MB

Magnet: Magnet Link

Seeds: 0

Leechers: 0

Stream: Watch Online @ Movie4u

Last Updated: 2015-09-14 00:44:42 (Update Now)

Torrent added: 2009-08-31 05:19:11





Torrent Files List


Ernest scared Stupid.nfo (Size: 700.22 MB) (Files: 51)

 Ernest scared Stupid.nfo

2.08 KB

 Ernest Scared Stupid.part01.rar

14.31 MB

 Ernest Scared Stupid.part02.rar

14.31 MB

 Ernest Scared Stupid.part03.rar

14.31 MB

 Ernest Scared Stupid.part04.rar

14.31 MB

 Ernest Scared Stupid.part05.rar

14.31 MB

 Ernest Scared Stupid.part06.rar

14.31 MB

 Ernest Scared Stupid.part07.rar

14.31 MB

 Ernest Scared Stupid.part08.rar

14.31 MB

 Ernest Scared Stupid.part09.rar

14.31 MB

 Ernest Scared Stupid.part10.rar

14.31 MB

 Ernest Scared Stupid.part11.rar

14.31 MB

 Ernest Scared Stupid.part12.rar

14.31 MB

 Ernest Scared Stupid.part13.rar

14.31 MB

 Ernest Scared Stupid.part14.rar

14.31 MB

 Ernest Scared Stupid.part15.rar

14.31 MB

 Ernest Scared Stupid.part16.rar

14.31 MB

 Ernest Scared Stupid.part17.rar

14.31 MB

 Ernest Scared Stupid.part18.rar

14.31 MB

 Ernest Scared Stupid.part19.rar

14.31 MB

 Ernest Scared Stupid.part20.rar

14.31 MB

 Ernest Scared Stupid.part21.rar

14.31 MB

 Ernest Scared Stupid.part22.rar

14.31 MB

 Ernest Scared Stupid.part23.rar

14.31 MB

 Ernest Scared Stupid.part24.rar

14.31 MB

 Ernest Scared Stupid.part25.rar

14.31 MB

 Ernest Scared Stupid.part26.rar

14.31 MB

 Ernest Scared Stupid.part27.rar

14.31 MB

 Ernest Scared Stupid.part28.rar

14.31 MB

 Ernest Scared Stupid.part29.rar

14.31 MB

 Ernest Scared Stupid.part30.rar

14.31 MB

 Ernest Scared Stupid.part31.rar

14.31 MB

 Ernest Scared Stupid.part32.rar

14.31 MB

 Ernest Scared Stupid.part33.rar

14.31 MB

 Ernest Scared Stupid.part34.rar

14.31 MB

 Ernest Scared Stupid.part35.rar

14.31 MB

 Ernest Scared Stupid.part36.rar

14.31 MB

 Ernest Scared Stupid.part37.rar

14.31 MB

 Ernest Scared Stupid.part38.rar

14.31 MB

 Ernest Scared Stupid.part39.rar

14.31 MB

 Ernest Scared Stupid.part40.rar

14.31 MB

 Ernest Scared Stupid.part41.rar

14.31 MB

 Ernest Scared Stupid.part42.rar

14.31 MB

 Ernest Scared Stupid.part43.rar

14.31 MB

 Ernest Scared Stupid.part44.rar

14.31 MB

 Ernest Scared Stupid.part45.rar

14.31 MB

 Ernest Scared Stupid.part46.rar

14.31 MB

 Ernest Scared Stupid.part47.rar

14.31 MB

 Ernest Scared Stupid.part48.rar

14.31 MB

 Ernest Scared Stupid.part49.rar

13.57 MB

 Ernest scared Stupid.sfv

5.49 KB
 

tracker

leech seeds
 

Torrent description

General
Complete name : C:\Torrent Creation\Ernest Scared Stupid\Ernest Scared Stupid.avi
Format : AVI
Format/Info : Audio Video Interleave
File size : 700 MiB
Duration : 1h 32mn
Overal bit rate : 1060 Kbps
Writing application : VirtualDubMod 1.5.4.1 (build 2178/release)
Writing library : VirtualDubMod build 2178/release
IAS1 : English

Video
Format : MPEG-4 Visual
Format profile : Streaming [email protected]
Format settings, BVOP : Yes
Format settings, QPel : No
Format settings, GMC : No warppoints
Format settings, Matrix : Custom
Codec ID : XVID
Codec ID/Hint : XviD
Duration : 1h 32mn
Bit rate : 934 Kbps
Width : 512 pixels
Height : 384 pixels
Display aspect ratio : 4/3
Frame rate : 23.976 fps
Resolution : 8 bits
Colorimetry : 4:2:0
Scan type : Progressive
Bits/(Pixel*Frame) : 0.198
Stream size : 617 MiB
Writing library : XviD 1.1.0 (UTC 2005-11-22)

Audio
Format : MPEG Audio
Format version : Version 1
Format profile : Layer 3
Codec ID : 55
Codec ID/Hint : MP3
Duration : 1h 32mn
Bit rate mode : Variable
Bit rate : 113 Kbps
Minimum bit rate : 128 Kbps
Channel(s) : 2 channels
Sampling rate : 48.0 KHz
Resolution : 16 bits
Stream size : 74.5 MiB
Writing library : LAME3.97b
Encoding settings : ABR

Link: http://www.imdb.com/title/tt0101821/

related torrents

Torrent name

health leech seeds Size

ERNEST SCARED STUPID

4 1 649.80 MB 0
 

comments (0)

Main Menu