Comedy

Ernest Saves Christmas 1988 DvdRip Xvid [

  • Download 5x Faster
  • Download torrent
  • Direct Download
  • Rate this torrent +  |  -
Ernest Saves Christmas 1988 DvdRip Xvid [

Anonymous and Free Direct Download 300GB+


Torrent info

Name:Ernest Saves Christmas 1988 DvdRip Xvid [

Total Size: 700.22 MB

Magnet: Magnet Link

Seeds: 0

Leechers: 0

Stream: Watch Online @ Movie4u

Last Updated: 2015-09-10 23:02:19 (Update Now)

Torrent added: 2009-08-31 05:19:01



VPN For Torrents

Torrent Files List


Ernest saves Christmas.nfo (Size: 700.22 MB) (Files: 51)

 Ernest saves Christmas.nfo

2.08 KB

 Ernest Saves Christmas.part01.rar

14.31 MB

 Ernest Saves Christmas.part02.rar

14.31 MB

 Ernest Saves Christmas.part03.rar

14.31 MB

 Ernest Saves Christmas.part04.rar

14.31 MB

 Ernest Saves Christmas.part05.rar

14.31 MB

 Ernest Saves Christmas.part06.rar

14.31 MB

 Ernest Saves Christmas.part07.rar

14.31 MB

 Ernest Saves Christmas.part08.rar

14.31 MB

 Ernest Saves Christmas.part09.rar

14.31 MB

 Ernest Saves Christmas.part10.rar

14.31 MB

 Ernest Saves Christmas.part11.rar

14.31 MB

 Ernest Saves Christmas.part12.rar

14.31 MB

 Ernest Saves Christmas.part13.rar

14.31 MB

 Ernest Saves Christmas.part14.rar

14.31 MB

 Ernest Saves Christmas.part15.rar

14.31 MB

 Ernest Saves Christmas.part16.rar

14.31 MB

 Ernest Saves Christmas.part17.rar

14.31 MB

 Ernest Saves Christmas.part18.rar

14.31 MB

 Ernest Saves Christmas.part19.rar

14.31 MB

 Ernest Saves Christmas.part20.rar

14.31 MB

 Ernest Saves Christmas.part21.rar

14.31 MB

 Ernest Saves Christmas.part22.rar

14.31 MB

 Ernest Saves Christmas.part23.rar

14.31 MB

 Ernest Saves Christmas.part24.rar

14.31 MB

 Ernest Saves Christmas.part25.rar

14.31 MB

 Ernest Saves Christmas.part26.rar

14.31 MB

 Ernest Saves Christmas.part27.rar

14.31 MB

 Ernest Saves Christmas.part28.rar

14.31 MB

 Ernest Saves Christmas.part29.rar

14.31 MB

 Ernest Saves Christmas.part30.rar

14.31 MB

 Ernest Saves Christmas.part31.rar

14.31 MB

 Ernest Saves Christmas.part32.rar

14.31 MB

 Ernest Saves Christmas.part33.rar

14.31 MB

 Ernest Saves Christmas.part34.rar

14.31 MB

 Ernest Saves Christmas.part35.rar

14.31 MB

 Ernest Saves Christmas.part36.rar

14.31 MB

 Ernest Saves Christmas.part37.rar

14.31 MB

 Ernest Saves Christmas.part38.rar

14.31 MB

 Ernest Saves Christmas.part39.rar

14.31 MB

 Ernest Saves Christmas.part40.rar

14.31 MB

 Ernest Saves Christmas.part41.rar

14.31 MB

 Ernest Saves Christmas.part42.rar

14.31 MB

 Ernest Saves Christmas.part43.rar

14.31 MB

 Ernest Saves Christmas.part44.rar

14.31 MB

 Ernest Saves Christmas.part45.rar

14.31 MB

 Ernest Saves Christmas.part46.rar

14.31 MB

 Ernest Saves Christmas.part47.rar

14.31 MB

 Ernest Saves Christmas.part48.rar

14.31 MB

 Ernest Saves Christmas.part49.rar

13.56 MB

 Ernest saves Christmas.sfv

5.69 KB
 

tracker

leech seeds
 

Torrent description

General
Complete name : C:\Torrent Creation\Ernest Saves Christmas\Ernest Saves Christmas.avi
Format : AVI
Format/Info : Audio Video Interleave
File size : 700 MiB
Duration : 1h 31mn
Overal bit rate : 1070 Kbps
Writing application : VirtualDubMod 1.5.4.1 (build 2178/release)
Writing library : VirtualDubMod build 2178/release
IAS1 : English

Video
Format : MPEG-4 Visual
Format profile : Streaming [email protected]
Format settings, BVOP : Yes
Format settings, QPel : No
Format settings, GMC : No warppoints
Format settings, Matrix : Custom
Codec ID : XVID
Codec ID/Hint : XviD
Duration : 1h 31mn
Bit rate : 943 Kbps
Width : 608 pixels
Height : 336 pixels
Display aspect ratio : 16/9
Frame rate : 23.976 fps
Resolution : 8 bits
Colorimetry : 4:2:0
Scan type : Progressive
Bits/(Pixel*Frame) : 0.193
Stream size : 617 MiB
Writing library : XviD 1.1.0 (UTC 2005-11-22)

Audio
Format : MPEG Audio
Format version : Version 1
Format profile : Layer 3
Codec ID : 55
Codec ID/Hint : MP3
Duration : 1h 31mn
Bit rate mode : Variable
Bit rate : 114 Kbps
Minimum bit rate : 128 Kbps
Channel(s) : 2 channels
Sampling rate : 48.0 KHz
Resolution : 16 bits
Stream size : 74.6 MiB
Writing library : LAME3.97b
Encoding settings : ABR

Link: http://www.imdb.com/title/tt0095107/

related torrents

Torrent name

health leech seeds Size
 


comments (0)

Main Menu