Comedy

Ernest in the Army 1998 DvdRip Xvid [

  • Download 5x Faster
  • Download torrent
  • Direct Download
  • Rate this torrent +  |  -
Ernest in the Army 1998 DvdRip Xvid [

Free and Direct Download with Usenet 300GB+ free


Torrent info

Name:Ernest in the Army 1998 DvdRip Xvid [

Total Size: 701.62 MB

Magnet: Magnet Link

Seeds: 0

Leechers: 0

Stream: Watch Online @ Movie4u

Last Updated: 2012-04-22 09:55:17 (Update Now)

Torrent added: 2009-08-31 05:18:38




Torrent Files List


Ernest in the Army.nfo (Size: 701.62 MB) (Files: 52)

 Ernest in the Army.nfo

2.07 KB

 Ernest In The Army.part01.rar

14.31 MB

 Ernest In The Army.part02.rar

14.31 MB

 Ernest In The Army.part03.rar

14.31 MB

 Ernest In The Army.part04.rar

14.31 MB

 Ernest In The Army.part05.rar

14.31 MB

 Ernest In The Army.part06.rar

14.31 MB

 Ernest In The Army.part07.rar

14.31 MB

 Ernest In The Army.part08.rar

14.31 MB

 Ernest In The Army.part09.rar

14.31 MB

 Ernest In The Army.part10.rar

14.31 MB

 Ernest In The Army.part11.rar

14.31 MB

 Ernest In The Army.part12.rar

14.31 MB

 Ernest In The Army.part13.rar

14.31 MB

 Ernest In The Army.part14.rar

14.31 MB

 Ernest In The Army.part15.rar

14.31 MB

 Ernest In The Army.part16.rar

14.31 MB

 Ernest In The Army.part17.rar

14.31 MB

 Ernest In The Army.part18.rar

14.31 MB

 Ernest In The Army.part19.rar

14.31 MB

 Ernest In The Army.part20.rar

14.31 MB

 Ernest In The Army.part21.rar

14.31 MB

 Ernest In The Army.part22.rar

14.31 MB

 Ernest In The Army.part23.rar

14.31 MB

 Ernest In The Army.part24.rar

14.31 MB

 Ernest In The Army.part25.rar

14.31 MB

 Ernest In The Army.part26.rar

14.31 MB

 Ernest In The Army.part27.rar

14.31 MB

 Ernest In The Army.part28.rar

14.31 MB

 Ernest In The Army.part29.rar

14.31 MB

 Ernest In The Army.part30.rar

14.31 MB

 Ernest In The Army.part31.rar

14.31 MB

 Ernest In The Army.part32.rar

14.31 MB

 Ernest In The Army.part33.rar

14.31 MB

 Ernest In The Army.part34.rar

14.31 MB

 Ernest In The Army.part35.rar

14.31 MB

 Ernest In The Army.part36.rar

14.31 MB

 Ernest In The Army.part37.rar

14.31 MB

 Ernest In The Army.part38.rar

14.31 MB

 Ernest In The Army.part39.rar

14.31 MB

 Ernest In The Army.part40.rar

14.31 MB

 Ernest In The Army.part41.rar

14.31 MB

 Ernest In The Army.part42.rar

14.31 MB

 Ernest In The Army.part43.rar

14.31 MB

 Ernest In The Army.part44.rar

14.31 MB

 Ernest In The Army.part45.rar

14.31 MB

 Ernest In The Army.part46.rar

14.31 MB

 Ernest In The Army.part47.rar

14.31 MB

 Ernest In The Army.part48.rar

14.31 MB

 Ernest In The Army.part49.rar

14.31 MB

 Ernest In The Army.part50.rar

675.20 KB

 Ernest in the Army.sfv

5.40 KB
 

Announce URL: http://tracker.ilovetorrents.com/announce.php

Torrent description

General
Complete name : C:\Torrent Creation\Ernest In The Army\Ernest In The Army.avi
Format : AVI
Format/Info : Audio Video Interleave
File size : 702 MiB
Duration : 1h 25mn
Overal bit rate : 1153 Kbps
Writing application : VirtualDubMod 1.5.4.1 (build 2178/release)
Writing library : VirtualDubMod build 2178/release
IAS1 : ???

Video
Format : MPEG-4 Visual
Format profile : Streaming [email protected]
Format settings, BVOP : Yes
Format settings, QPel : No
Format settings, GMC : No warppoints
Format settings, Matrix : Custom
Codec ID : XVID
Codec ID/Hint : XviD
Duration : 1h 25mn
Bit rate : 1025 Kbps
Width : 512 pixels
Height : 384 pixels
Display aspect ratio : 4/3
Frame rate : 29.970 fps
Resolution : 8 bits
Colorimetry : 4:2:0
Scan type : Progressive
Bits/(Pixel*Frame) : 0.174
Stream size : 624 MiB
Writing library : XviD 1.1.0 (UTC 2005-11-22)

Audio
Format : MPEG Audio
Format version : Version 1
Format profile : Layer 3
Codec ID : 55
Codec ID/Hint : MP3
Duration : 1h 25mn
Bit rate mode : Variable
Bit rate : 114 Kbps
Minimum bit rate : 128 Kbps
Channel(s) : 2 channels
Sampling rate : 48.0 KHz
Resolution : 16 bits
Stream size : 69.4 MiB
Writing library : LAME3.97b
Encoding settings : ABR

Link: http://www.imdb.com/title/tt0129908/

related torrents

Torrent name

health leech seeds Size

Ernest In the Army [1998]

0 0 699.04 MB 0

Ernest In The Army avi

0 0 696.00 MB 0
 

comments (0)

Main Menu