Comedy

Ernest Goes To Jail 1990 DvdRip Xvid[

  • Download 5x Faster
  • Download torrent
  • Direct Download
  • Rate this torrent +  |  -
Ernest Goes To Jail 1990 DvdRip Xvid[

Free and Direct Download with Usenet.nl 300GB+ free


Torrent info

Name:Ernest Goes To Jail 1990 DvdRip Xvid[

Total Size: 705.00 MB

Magnet: Magnet Link

Seeds: 0

Leechers: 0

Stream: Watch Online @ Movie4u

Last Updated: 2016-05-26 12:36:21 (Update Now)

Torrent added: 2009-08-31 05:18:31





Torrent Files List


Ernest goes to Jail.nfo (Size: 705.00 MB) (Files: 52)

 Ernest goes to Jail.nfo

2.08 KB

 Ernest Goes To Jail.part01.rar

14.31 MB

 Ernest Goes To Jail.part02.rar

14.31 MB

 Ernest Goes To Jail.part03.rar

14.31 MB

 Ernest Goes To Jail.part04.rar

14.31 MB

 Ernest Goes To Jail.part05.rar

14.31 MB

 Ernest Goes To Jail.part06.rar

14.31 MB

 Ernest Goes To Jail.part07.rar

14.31 MB

 Ernest Goes To Jail.part08.rar

14.31 MB

 Ernest Goes To Jail.part09.rar

14.31 MB

 Ernest Goes To Jail.part10.rar

14.31 MB

 Ernest Goes To Jail.part11.rar

14.31 MB

 Ernest Goes To Jail.part12.rar

14.31 MB

 Ernest Goes To Jail.part13.rar

14.31 MB

 Ernest Goes To Jail.part14.rar

14.31 MB

 Ernest Goes To Jail.part15.rar

14.31 MB

 Ernest Goes To Jail.part16.rar

14.31 MB

 Ernest Goes To Jail.part17.rar

14.31 MB

 Ernest Goes To Jail.part18.rar

14.31 MB

 Ernest Goes To Jail.part19.rar

14.31 MB

 Ernest Goes To Jail.part20.rar

14.31 MB

 Ernest Goes To Jail.part21.rar

14.31 MB

 Ernest Goes To Jail.part22.rar

14.31 MB

 Ernest Goes To Jail.part23.rar

14.31 MB

 Ernest Goes To Jail.part24.rar

14.31 MB

 Ernest Goes To Jail.part25.rar

14.31 MB

 Ernest Goes To Jail.part26.rar

14.31 MB

 Ernest Goes To Jail.part27.rar

14.31 MB

 Ernest Goes To Jail.part28.rar

14.31 MB

 Ernest Goes To Jail.part29.rar

14.31 MB

 Ernest Goes To Jail.part30.rar

14.31 MB

 Ernest Goes To Jail.part31.rar

14.31 MB

 Ernest Goes To Jail.part32.rar

14.31 MB

 Ernest Goes To Jail.part33.rar

14.31 MB

 Ernest Goes To Jail.part34.rar

14.31 MB

 Ernest Goes To Jail.part35.rar

14.31 MB

 Ernest Goes To Jail.part36.rar

14.31 MB

 Ernest Goes To Jail.part37.rar

14.31 MB

 Ernest Goes To Jail.part38.rar

14.31 MB

 Ernest Goes To Jail.part39.rar

14.31 MB

 Ernest Goes To Jail.part40.rar

14.31 MB

 Ernest Goes To Jail.part41.rar

14.31 MB

 Ernest Goes To Jail.part42.rar

14.31 MB

 Ernest Goes To Jail.part43.rar

14.31 MB

 Ernest Goes To Jail.part44.rar

14.31 MB

 Ernest Goes To Jail.part45.rar

14.31 MB

 Ernest Goes To Jail.part46.rar

14.31 MB

 Ernest Goes To Jail.part47.rar

14.31 MB

 Ernest Goes To Jail.part48.rar

14.31 MB

 Ernest Goes To Jail.part49.rar

14.31 MB

 Ernest Goes To Jail.part50.rar

4.04 MB

 Ernest goes to Jail.sfv

5.50 KB
 

tracker

leech seeds
 

Torrent description

General
Complete name : C:\Torrent Creation\Ernest Goes To Jail\Ernest Goes To Jail.avi
Format : AVI
Format/Info : Audio Video Interleave
File size : 705 MiB
Duration : 1h 21mn
Overal bit rate : 1212 Kbps
Writing application : VirtualDubMod 1.5.4.1 (build 2178/release)
Writing library : VirtualDubMod build 2178/release
IAS1 : English

Video
Format : MPEG-4 Visual
Format profile : Streaming [email protected]
Format settings, BVOP : Yes
Format settings, QPel : No
Format settings, GMC : No warppoints
Format settings, Matrix : Custom
Codec ID : XVID
Codec ID/Hint : XviD
Duration : 1h 21mn
Bit rate : 1086 Kbps
Width : 496 pixels
Height : 368 pixels
Display aspect ratio : 4/3
Frame rate : 23.976 fps
Resolution : 8 bits
Colorimetry : 4:2:0
Scan type : Progressive
Bits/(Pixel*Frame) : 0.248
Stream size : 632 MiB
Writing library : XviD 1.1.0 (UTC 2005-11-22)

Audio
Format : MPEG Audio
Format version : Version 1
Format profile : Layer 3
Codec ID : 55
Codec ID/Hint : MP3
Duration : 1h 21mn
Bit rate mode : Variable
Bit rate : 114 Kbps
Minimum bit rate : 128 Kbps
Channel(s) : 2 channels
Sampling rate : 48.0 KHz
Resolution : 16 bits
Stream size : 66.1 MiB
Writing library : LAME3.97b
Encoding settings : ABR


Link: http://www.imdb.com/title/tt0099512/

related torrents

Torrent name

health leech seeds Size

Ernest Goes to Jail [1990]

0 0 700.13 MB 0

Ernest Goes To Jail avi

0 0 700.00 MB 0
 

comments (0)

Main Menu