Comedy

Ernest Goes To Camp 1987 DvdRip Xvid[

  • Download 5x Faster
  • Download torrent
  • Direct Download
  • Rate this torrent +  |  -
Ernest Goes To Camp 1987 DvdRip Xvid[

Free and Direct Download with Usenet 300GB+ free


Torrent info

Name:Ernest Goes To Camp 1987 DvdRip Xvid[

Total Size: 700.66 MB

Magnet: Magnet Link

Seeds: 0

Leechers: 0

Stream: Watch Online @ Movie4u

Last Updated: 0000-00-00 00:00:00 (Update Now)

Torrent added: 2009-08-31 05:18:17




Torrent Files List


Ernest goes to Camp.nfo (Size: 700.66 MB) (Files: 51)

 Ernest goes to Camp.nfo

2.08 KB

 Ernest Goes To Camp.part01.rar

14.31 MB

 Ernest Goes To Camp.part02.rar

14.31 MB

 Ernest Goes To Camp.part03.rar

14.31 MB

 Ernest Goes To Camp.part04.rar

14.31 MB

 Ernest Goes To Camp.part05.rar

14.31 MB

 Ernest Goes To Camp.part06.rar

14.31 MB

 Ernest Goes To Camp.part07.rar

14.31 MB

 Ernest Goes To Camp.part08.rar

14.31 MB

 Ernest Goes To Camp.part09.rar

14.31 MB

 Ernest Goes To Camp.part10.rar

14.31 MB

 Ernest Goes To Camp.part11.rar

14.31 MB

 Ernest Goes To Camp.part12.rar

14.31 MB

 Ernest Goes To Camp.part13.rar

14.31 MB

 Ernest Goes To Camp.part14.rar

14.31 MB

 Ernest Goes To Camp.part15.rar

14.31 MB

 Ernest Goes To Camp.part16.rar

14.31 MB

 Ernest Goes To Camp.part17.rar

14.31 MB

 Ernest Goes To Camp.part18.rar

14.31 MB

 Ernest Goes To Camp.part19.rar

14.31 MB

 Ernest Goes To Camp.part20.rar

14.31 MB

 Ernest Goes To Camp.part21.rar

14.31 MB

 Ernest Goes To Camp.part22.rar

14.31 MB

 Ernest Goes To Camp.part23.rar

14.31 MB

 Ernest Goes To Camp.part24.rar

14.31 MB

 Ernest Goes To Camp.part25.rar

14.31 MB

 Ernest Goes To Camp.part26.rar

14.31 MB

 Ernest Goes To Camp.part27.rar

14.31 MB

 Ernest Goes To Camp.part28.rar

14.31 MB

 Ernest Goes To Camp.part29.rar

14.31 MB

 Ernest Goes To Camp.part30.rar

14.31 MB

 Ernest Goes To Camp.part31.rar

14.31 MB

 Ernest Goes To Camp.part32.rar

14.31 MB

 Ernest Goes To Camp.part33.rar

14.31 MB

 Ernest Goes To Camp.part34.rar

14.31 MB

 Ernest Goes To Camp.part35.rar

14.31 MB

 Ernest Goes To Camp.part36.rar

14.31 MB

 Ernest Goes To Camp.part37.rar

14.31 MB

 Ernest Goes To Camp.part38.rar

14.31 MB

 Ernest Goes To Camp.part39.rar

14.31 MB

 Ernest Goes To Camp.part40.rar

14.31 MB

 Ernest Goes To Camp.part41.rar

14.31 MB

 Ernest Goes To Camp.part42.rar

14.31 MB

 Ernest Goes To Camp.part43.rar

14.31 MB

 Ernest Goes To Camp.part44.rar

14.31 MB

 Ernest Goes To Camp.part45.rar

14.31 MB

 Ernest Goes To Camp.part46.rar

14.31 MB

 Ernest Goes To Camp.part47.rar

14.31 MB

 Ernest Goes To Camp.part48.rar

14.31 MB

 Ernest Goes To Camp.part49.rar

14.01 MB

 Ernest goes to Camp.sfv

5.39 KB
 

Announce URL: http://tracker.ilovetorrents.com/announce.php

Torrent description

General
Complete name : C:\Torrent Creation\Ernest Goes To Camp\Ernest Goes To Camp.avi
Format : AVI
Format/Info : Audio Video Interleave
File size : 701 MiB
Duration : 1h 32mn
Overal bit rate : 1064 Kbps
Writing application : VirtualDubMod 1.5.4.1 (build 2178/release)
Writing library : VirtualDubMod build 2178/release
IAS1 : English

Video
Format : MPEG-4 Visual
Format profile : Streaming [email protected]
Format settings, BVOP : Yes
Format settings, QPel : No
Format settings, GMC : No warppoints
Format settings, Matrix : Custom
Codec ID : XVID
Codec ID/Hint : XviD
Duration : 1h 32mn
Bit rate : 940 Kbps
Width : 608 pixels
Height : 272 pixels
Display aspect ratio : 2.25
Frame rate : 23.976 fps
Resolution : 8 bits
Colorimetry : 4:2:0
Scan type : Progressive
Bits/(Pixel*Frame) : 0.237
Stream size : 619 MiB
Writing library : XviD 1.1.0 (UTC 2005-11-22)

Audio
Format : MPEG Audio
Format version : Version 1
Format profile : Layer 3
Codec ID : 55
Codec ID/Hint : MP3
Duration : 1h 32mn
Bit rate mode : Variable
Bit rate : 112 Kbps
Minimum bit rate : 128 Kbps
Channel(s) : 2 channels
Sampling rate : 48.0 KHz
Resolution : 16 bits
Stream size : 73.7 MiB
Writing library : LAME3.97b
Encoding settings : ABR


Link: http://www.imdb.com/title/tt0092974/

related torrents

Torrent name

health leech seeds Size

Ernest Goes to Camp [1987]

0 0 700.23 MB 0
 

comments (0)

Main Menu