Comedy

Ernest Goes To Africa 1987 DvdRip Xvid[

  • Download 5x Faster
  • Download torrent
  • Direct Download
  • Rate this torrent +  |  -
Ernest Goes To Africa 1987 DvdRip Xvid[

Anonymous and Free Direct Download 300GB+


Torrent info

Name:Ernest Goes To Africa 1987 DvdRip Xvid[

Total Size: 700.09 MB

Magnet: Magnet Link

Seeds: 0

Leechers: 0

Stream: Watch Online @ Movie4u

Last Updated: 2016-04-19 04:25:09 (Update Now)

Torrent added: 2009-08-31 05:18:09



VPN For Torrents

Torrent Files List


Ernest Goes To Africa.part01.rar (Size: 700.09 MB) (Files: 51)

 Ernest Goes To Africa.part01.rar

14.31 MB

 Ernest Goes To Africa.part01.sfv

5.59 KB

 Ernest Goes To Africa.part02.rar

14.31 MB

 Ernest Goes To Africa.part03.rar

14.31 MB

 Ernest Goes To Africa.part04.rar

14.31 MB

 Ernest Goes To Africa.part05.rar

14.31 MB

 Ernest Goes To Africa.part06.rar

14.31 MB

 Ernest Goes To Africa.part07.rar

14.31 MB

 Ernest Goes To Africa.part08.rar

14.31 MB

 Ernest Goes To Africa.part09.rar

14.31 MB

 Ernest Goes To Africa.part10.rar

14.31 MB

 Ernest Goes To Africa.part11.rar

14.31 MB

 Ernest Goes To Africa.part12.rar

14.31 MB

 Ernest Goes To Africa.part13.rar

14.31 MB

 Ernest Goes To Africa.part14.rar

14.31 MB

 Ernest Goes To Africa.part15.rar

14.31 MB

 Ernest Goes To Africa.part16.rar

14.31 MB

 Ernest Goes To Africa.part17.rar

14.31 MB

 Ernest Goes To Africa.part18.rar

14.31 MB

 Ernest Goes To Africa.part19.rar

14.31 MB

 Ernest Goes To Africa.part20.rar

14.31 MB

 Ernest Goes To Africa.part21.rar

14.31 MB

 Ernest Goes To Africa.part22.rar

14.31 MB

 Ernest Goes To Africa.part23.rar

14.31 MB

 Ernest Goes To Africa.part24.rar

14.31 MB

 Ernest Goes To Africa.part25.rar

14.31 MB

 Ernest Goes To Africa.part26.rar

14.31 MB

 Ernest Goes To Africa.part27.rar

14.31 MB

 Ernest Goes To Africa.part28.rar

14.31 MB

 Ernest Goes To Africa.part29.rar

14.31 MB

 Ernest Goes To Africa.part30.rar

14.31 MB

 Ernest Goes To Africa.part31.rar

14.31 MB

 Ernest Goes To Africa.part32.rar

14.31 MB

 Ernest Goes To Africa.part33.rar

14.31 MB

 Ernest Goes To Africa.part34.rar

14.31 MB

 Ernest Goes To Africa.part35.rar

14.31 MB

 Ernest Goes To Africa.part36.rar

14.31 MB

 Ernest Goes To Africa.part37.rar

14.31 MB

 Ernest Goes To Africa.part38.rar

14.31 MB

 Ernest Goes To Africa.part39.rar

14.31 MB

 Ernest Goes To Africa.part40.rar

14.31 MB

 Ernest Goes To Africa.part41.rar

14.31 MB

 Ernest Goes To Africa.part42.rar

14.31 MB

 Ernest Goes To Africa.part43.rar

14.31 MB

 Ernest Goes To Africa.part44.rar

14.31 MB

 Ernest Goes To Africa.part45.rar

14.31 MB

 Ernest Goes To Africa.part46.rar

14.31 MB

 Ernest Goes To Africa.part47.rar

14.31 MB

 Ernest Goes To Africa.part48.rar

14.31 MB

 Ernest Goes To Africa.part49.rar

13.43 MB

 Ernest goes to Afrika.nfo

2.08 KB
 

tracker

leech seeds
 

Torrent description

General
Complete name : C:\Torrent Creation\Ernest Goes To Africa\Ernest Goes To Africa.avi
Format : AVI
Format/Info : Audio Video Interleave
File size : 700 MiB
Duration : 1h 4mn
Overal bit rate : 1511 Kbps
Writing application : VirtualDubMod 1.5.4.1 (build 2178/release)
Writing library : VirtualDubMod build 2178/release
IAS1 : ???

Video
Format : MPEG-4 Visual
Format profile : Streaming [email protected]
Format settings, BVOP : Yes
Format settings, QPel : No
Format settings, GMC : No warppoints
Format settings, Matrix : Custom
Codec ID : XVID
Codec ID/Hint : XviD
Duration : 1h 4mn
Bit rate : 1385 Kbps
Width : 544 pixels
Height : 416 pixels
Display aspect ratio : 4/3
Frame rate : 29.970 fps
Resolution : 8 bits
Colorimetry : 4:2:0
Scan type : Progressive
Bits/(Pixel*Frame) : 0.204
Stream size : 642 MiB
Writing library : XviD 1.1.0 (UTC 2005-11-22)

Audio
Format : MPEG Audio
Format version : Version 1
Format profile : Layer 3
Codec ID : 55
Codec ID/Hint : MP3
Duration : 1h 4mn
Bit rate mode : Variable
Bit rate : 112 Kbps
Minimum bit rate : 128 Kbps
Channel(s) : 2 channels
Sampling rate : 48.0 KHz
Resolution : 16 bits
Stream size : 52.1 MiB
Writing library : LAME3.97b
Encoding settings : ABR


Link: http://www.imdb.com/title/tt0119068/

related torrents

Torrent name

health leech seeds Size

Ernest Goes to Camp [1987]

0 0 700.23 MB 0
 


comments (0)

Main Menu