Comedy

Empire Records 1996 {DvDRiP Xvid}[1337x][blackjesus]

  • Download 5x Faster
  • Download torrent
  • Direct Download
  • Rate this torrent +  |  -
Empire Records 1996 {DvDRiP Xvid}[1337x][blackjesus]

Free and Direct Download with Usenet.nl 300GB+ free


Torrent info

Name:Empire Records 1996 {DvDRiP Xvid}[1337x][blackjesus]

Total Size: 702.93 MB

Magnet: Magnet Link

Seeds: 0

Leechers: 0

Stream: Watch Online @ Movie4u

Last Updated: 2012-02-26 07:23:34 (Update Now)

Torrent added: 2009-08-31 05:09:23





Torrent Files List


1337x.org.txt (Size: 702.93 MB) (Files: 6)

 1337x.org.txt

0.02 KB

 BlAcKjEsUs.txt

0.30 KB

 empire records.avi

702.86 MB

 EmpireRecords.jpg

76.57 KB

 INFO.txt

2.69 KB

 Upload template.txt

0.48 KB
 

Announce URL:

Torrent description

Empire Records (1996)







http://www.youtube.com/watch?v=ljVvkt4qD8A
^^Trailer^^

http://www.imdb.com/title/tt0112950/
^^IMDB^^



Release Date: 28 June 1996 (UK)
Genre: Comedy | Drama | Music
Tagline: Open 'til Midnight.


A day in the life of the employees of Empire Records. Except this is a day where everything comes to a head for a number of them facing personal crises - can they pull through together? And more importantly, can they keep their record store independent and not swallowed up by corporate greed?


Video
Format : MPEG-4 Visual
Format profile : Streaming [email protected]
Format settings, BVOP : Yes
Format settings, QPel : No
Format settings, GMC : No warppoints
Format settings, Matrix : Default (H.263)
Muxing mode : Packed bitstream
Codec ID : XVID
Codec ID/Hint : XviD
Duration : 1h 42mn
Bit rate : 837 Kbps
Width : 544 pixels
Height : 224 pixels
Display aspect ratio : 2.429
Frame rate : 25.000 fps
Resolution : 24 bits
Colorimetry : 4:2:0
Scan type : Progressive
Bits/(Pixel*Frame) : 0.275
Stream size : 615 MiB (87%)
Writing library : XviD 1.2.1 (UTC 2008-12-04)

Audio
Format : MPEG Audio
Format version : Version 1
Format profile : Layer 3
Codec ID : 55
Codec ID/Hint : MP3
Duration : 1h 42mn
Bit rate mode : Variable
Bit rate : 107 Kbps
Channel(s) : 2 channels
Sampling rate : 48.0 KHz
Resolution : 16 bits
Stream size : 78.8 MiB (11%)
Alignment : Aligned on interleaves
Interleave, duration : 24 ms (0.60 video frame)
Interleave, preload duration : 465 ms

related torrents

Torrent name

health leech seeds Size
 

comments (0)

Main Menu