Comedy

Elizabethtown DVDRip XviD DiAMOND

  • Download 5x Faster
  • Download torrent
  • Direct Download
  • Rate this torrent +  |  -
Elizabethtown DVDRip XviD DiAMOND

Anonymous and Direct Download 300GB+ free


Torrent info

Name:Elizabethtown DVDRip XviD DiAMOND

Total Size: 711.15 MB

Magnet: Magnet Link

Seeds: 0

Leechers: 0

Stream: Watch Online @ Movie4u

Last Updated: 0000-00-00 00:00:00 (Update Now)

Torrent added: 2009-08-31 05:04:20




Torrent Files List


Elizabethtown.DVDRip.XviD-DiAMOND (Size: 711.15 MB) (Files: 54)

 Elizabethtown.DVDRip.XviD-DiAMOND

  Sample

   dmd-elizabethtown-sample.avi

3.99 MB

  dmd-elizabethtown.nfo

6.60 KB

  dmd-elizabethtown.r00

14.31 MB

  dmd-elizabethtown.r01

14.31 MB

  dmd-elizabethtown.r02

14.31 MB

  dmd-elizabethtown.r03

14.31 MB

  dmd-elizabethtown.r04

14.31 MB

  dmd-elizabethtown.r05

14.31 MB

  dmd-elizabethtown.r06

14.31 MB

  dmd-elizabethtown.r07

14.31 MB

  dmd-elizabethtown.r08

14.31 MB

  dmd-elizabethtown.r09

14.31 MB

  dmd-elizabethtown.r10

14.31 MB

  dmd-elizabethtown.r11

14.31 MB

  dmd-elizabethtown.r12

14.31 MB

  dmd-elizabethtown.r13

14.31 MB

  dmd-elizabethtown.r14

14.31 MB

  dmd-elizabethtown.r15

14.31 MB

  dmd-elizabethtown.r16

14.31 MB

  dmd-elizabethtown.r17

14.31 MB

  dmd-elizabethtown.r18

14.31 MB

  dmd-elizabethtown.r19

14.31 MB

  dmd-elizabethtown.r20

14.31 MB

  dmd-elizabethtown.r21

14.31 MB

  dmd-elizabethtown.r22

14.31 MB

  dmd-elizabethtown.r23

14.31 MB

  dmd-elizabethtown.r24

14.31 MB

  dmd-elizabethtown.r25

14.31 MB

  dmd-elizabethtown.r26

14.31 MB

  dmd-elizabethtown.r27

14.31 MB

  dmd-elizabethtown.r28

14.31 MB

  dmd-elizabethtown.r29

14.31 MB

  dmd-elizabethtown.r30

14.31 MB

  dmd-elizabethtown.r31

14.31 MB

  dmd-elizabethtown.r32

14.31 MB

  dmd-elizabethtown.r33

14.31 MB

  dmd-elizabethtown.r34

14.31 MB

  dmd-elizabethtown.r35

14.31 MB

  dmd-elizabethtown.r36

14.31 MB

  dmd-elizabethtown.r37

14.31 MB

  dmd-elizabethtown.r38

14.31 MB

  dmd-elizabethtown.r39

14.31 MB

  dmd-elizabethtown.r40

14.31 MB

  dmd-elizabethtown.r41

14.31 MB

  dmd-elizabethtown.r42

14.31 MB

  dmd-elizabethtown.r43

14.31 MB

  dmd-elizabethtown.r44

14.31 MB

  dmd-elizabethtown.r45

14.31 MB

  dmd-elizabethtown.r46

14.31 MB

  dmd-elizabethtown.r47

14.31 MB

  dmd-elizabethtown.r48

6.20 MB

  dmd-elizabethtown.rar

14.31 MB

  dmd-elizabethtown.sfv

1.56 KB

 Torrent_downloaded_from_Demonoid_com.txt

0.05 KB
 

Announce URL:

Torrent description

Poster:
Elizabethtown DVDRip XviD DiAMOND preview 0

Icon:
Elizabethtown DVDRip XviD DiAMOND preview 1

General
Complete name : dmd-elizabethtown.avi
Format : AVI
Format/Info : Audio Video Interleave
File size : 700 MiB
Duration : 2h 3mn
Overall bit rate : 791 Kbps
Writing application : VirtualDubMod 1.5.10.2 (build 2540/release)
Writing library : VirtualDubMod build 2540/release

Video
Format : MPEG-4 Visual
Format profile : Streaming [email protected]
Format settings, BVOP : Yes
Format settings, QPel : No
Format settings, GMC : No warppoints
Format settings, Matrix : Default
Muxing mode : Packed bitstream
Codec ID : XVID
Codec ID/Hint : XviD
Duration : 2h 3mn
Bit rate : 643 Kbps
Width : 608 pixels
Height : 336 pixels
Display aspect ratio : 16/9
Frame rate : 23.976 fps
Resolution : 24 bits
Colorimetry : 4:2:0
Scan type : Progressive
Bits/(Pixel*Frame) : 0.131
Stream size : 569 MiB (81%)
Writing library : XviD 1.1.0 (UTC 2005-11-22)

Audio
Format : MPEG Audio
Format version : Version 1
Format profile : Layer 3
Codec ID : 55
Codec ID/Hint : MP3
Duration : 2h 3mn
Bit rate mode : Variable
Bit rate : 136 Kbps
Minimum bit rate : 128 Kbps
Channel(s) : 2 channels
Sampling rate : 48.0 KHz
Resolution : 16 bits
Stream size : 120 MiB (17%)
Alignment : Aligned on interleaves
Interleave, duration : 24 ms (0.58 video frame)
Interleave, preload duration : 135 ms
Writing library : LAME3.97b
Encoding settings : VBR (mtrh)

related torrents

Torrent name

health leech seeds Size
 


comments (0)

Main Menu